  0
SECTION
  2
HEADER
  9
$ACADVER
  1
AC1015
  9
$ACADMAINTVER
 70
     6
  9
$DWGCODEPAGE
  3
DOS932
  9
$INSBASE
 10
0.0
 20
0.0
 30
0.0
  9
$EXTMIN
 10
0.0
 20
0.0
 30
0.0
  9
$EXTMAX
 10
420.0
 20
297.0
 30
0.0
  9
$LIMMIN
 10
0.0
 20
0.0
  9
$LIMMAX
 10
420.0
 20
297.0
  9
$ORTHOMODE
 70
     0
  9
$REGENMODE
 70
     1
  9
$FILLMODE
 70
     1
  9
$QTEXTMODE
 70
     0
  9
$MIRRTEXT
 70
     1
  9
$LTSCALE
 40
1.0
  9
$ATTMODE
 70
     1
  9
$TEXTSIZE
 40
3.5
  9
$TRACEWID
 40
1.0
  9
$TEXTSTYLE
  7
Standard
  9
$CLAYER
  8
0
  9
$CELTYPE
  6
ByLayer
  9
$CECOLOR
 62
   256
  9
$CELTSCALE
 40
1.0
  9
$DISPSILH
 70
     0
  9
$DIMSCALE
 40
1.0
  9
$DIMASZ
 40
3.0
  9
$DIMEXO
 40
1.0
  9
$DIMDLI
 40
3.75
  9
$DIMRND
 40
0.0
  9
$DIMDLE
 40
0.0
  9
$DIMEXE
 40
1.0
  9
$DIMTP
 40
0.0
  9
$DIMTM
 40
0.0
  9
$DIMTXT
 40
3.5
  9
$DIMCEN
 40
2.5
  9
$DIMTSZ
 40
0.0
  9
$DIMTOL
 70
     0
  9
$DIMLIM
 70
     0
  9
$DIMTIH
 70
     1
  9
$DIMTOH
 70
     1
  9
$DIMSE1
 70
     0
  9
$DIMSE2
 70
     0
  9
$DIMTAD
 70
     1
  9
$DIMZIN
 70
     0
  9
$DIMBLK
  1

  9
$DIMASO
 70
     1
  9
$DIMSHO
 70
     1
  9
$DIMPOST
  1

  9
$DIMAPOST
  1

  9
$DIMALT
 70
     0
  9
$DIMALTD
 70
     3
  9
$DIMALTF
 40
0.0393700787
  9
$DIMLFAC
 40
1.0
  9
$DIMTOFL
 70
     1
  9
$DIMTVP
 40
0.0
  9
$DIMTIX
 70
     0
  9
$DIMSOXD
 70
     0
  9
$DIMSAH
 70
     0
  9
$DIMBLK1
  1

  9
$DIMBLK2
  1

  9
$DIMSTYLE
  2
ISO-25
  9
$DIMCLRD
 70
     0
  9
$DIMCLRE
 70
     0
  9
$DIMCLRT
 70
     0
  9
$DIMTFAC
 40
1.0
  9
$DIMGAP
 40
1.524
  9
$DIMJUST
 70
     0
  9
$DIMSD1
 70
     0
  9
$DIMSD2
 70
     0
  9
$DIMTOLJ
 70
     0
  9
$DIMTZIN
 70
     0
  9
$DIMALTZ
 70
     0
  9
$DIMALTTZ
 70
     0
  9
$DIMUPT
 70
     0
  9
$DIMDEC
 70
     2
  9
$DIMTDEC
 70
     2
  9
$DIMALTU
 70
     2
  9
$DIMALTTD
 70
     3
  9
$DIMTXSTY
  7
Standard
  9
$DIMAUNIT
 70
     0
  9
$DIMADEC
 70
     2
  9
$DIMALTRND
 40
0.0
  9
$DIMAZIN
 70
     0
  9
$DIMDSEP
 70
    44
  9
$DIMATFIT
 70
     3
  9
$DIMFRAC
 70
     0
  9
$DIMLDRBLK
  1

  9
$DIMLUNIT
 70
     2
  9
$DIMLWD
 70
    -2
  9
$DIMLWE
 70
    -2
  9
$DIMTMOVE
 70
     0
  9
$LUNITS
 70
     2
  9
$LUPREC
 70
     4
  9
$SKETCHINC
 40
1.0
  9
$FILLETRAD
 40
10.0
  9
$AUNITS
 70
     0
  9
$AUPREC
 70
     2
  9
$MENU
  1
.
  9
$ELEVATION
 40
0.0
  9
$PELEVATION
 40
0.0
  9
$THICKNESS
 40
0.0
  9
$LIMCHECK
 70
     0
  9
$CHAMFERA
 40
0.0
  9
$CHAMFERB
 40
0.0
  9
$CHAMFERC
 40
0.0
  9
$CHAMFERD
 40
0.0
  9
$SKPOLY
 70
     0
  9
$TDCREATE
 40
2458984.367448762
  9
$TDUCREATE
 40
2458983.992448762
  9
$TDUPDATE
 40
2458984.36745375
  9
$TDUUPDATE
 40
2458983.99245375
  9
$TDINDWG
 40
0.0000000116
  9
$TDUSRTIMER
 40
0.0000000116
  9
$USRTIMER
 70
     1
  9
$ANGBASE
 50
0.0
  9
$ANGDIR
 70
     0
  9
$PDMODE
 70
     0
  9
$PDSIZE
 40
-1.0
  9
$PLINEWID
 40
0.0
  9
$SPLFRAME
 70
     0
  9
$SPLINETYPE
 70
     6
  9
$SPLINESEGS
 70
     8
  9
$HANDSEED
  5
34E
  9
$SURFTAB1
 70
     6
  9
$SURFTAB2
 70
     6
  9
$SURFTYPE
 70
     6
  9
$SURFU
 70
     6
  9
$SURFV
 70
     6
  9
$UCSBASE
  2

  9
$UCSNAME
  2

  9
$UCSORG
 10
0.0
 20
0.0
 30
0.0
  9
$UCSXDIR
 10
1.0
 20
0.0
 30
0.0
  9
$UCSYDIR
 10
0.0
 20
1.0
 30
0.0
  9
$UCSORTHOREF
  2

  9
$UCSORTHOVIEW
 70
     0
  9
$UCSORGTOP
 10
0.0
 20
0.0
 30
0.0
  9
$UCSORGBOTTOM
 10
0.0
 20
0.0
 30
0.0
  9
$UCSORGLEFT
 10
0.0
 20
0.0
 30
0.0
  9
$UCSORGRIGHT
 10
0.0
 20
0.0
 30
0.0
  9
$UCSORGFRONT
 10
0.0
 20
0.0
 30
0.0
  9
$UCSORGBACK
 10
0.0
 20
0.0
 30
0.0
  9
$PUCSBASE
  2

  9
$PUCSNAME
  2

  9
$PUCSORG
 10
0.0
 20
0.0
 30
0.0
  9
$PUCSXDIR
 10
1.0
 20
0.0
 30
0.0
  9
$PUCSYDIR
 10
0.0
 20
1.0
 30
0.0
  9
$PUCSORTHOREF
  2

  9
$PUCSORTHOVIEW
 70
     0
  9
$PUCSORGTOP
 10
0.0
 20
0.0
 30
0.0
  9
$PUCSORGBOTTOM
 10
0.0
 20
0.0
 30
0.0
  9
$PUCSORGLEFT
 10
0.0
 20
0.0
 30
0.0
  9
$PUCSORGRIGHT
 10
0.0
 20
0.0
 30
0.0
  9
$PUCSORGFRONT
 10
0.0
 20
0.0
 30
0.0
  9
$PUCSORGBACK
 10
0.0
 20
0.0
 30
0.0
  9
$USERI1
 70
     0
  9
$USERI2
 70
     0
  9
$USERI3
 70
     0
  9
$USERI4
 70
     0
  9
$USERI5
 70
     0
  9
$USERR1
 40
0.0
  9
$USERR2
 40
0.0
  9
$USERR3
 40
0.0
  9
$USERR4
 40
0.0
  9
$USERR5
 40
0.0
  9
$WORLDVIEW
 70
     1
  9
$SHADEDGE
 70
     3
  9
$SHADEDIF
 70
    70
  9
$TILEMODE
 70
     1
  9
$MAXACTVP
 70
    64
  9
$PINSBASE
 10
0.0
 20
0.0
 30
0.0
  9
$PLIMCHECK
 70
     0
  9
$PEXTMIN
 10
1.0000000000E+20
 20
1.0000000000E+20
 30
1.0000000000E+20
  9
$PEXTMAX
 10
-1.0000000000E+20
 20
-1.0000000000E+20
 30
-1.0000000000E+20
  9
$PLIMMIN
 10
0.0
 20
0.0
  9
$PLIMMAX
 10
420.0
 20
297.0
  9
$UNITMODE
 70
     0
  9
$VISRETAIN
 70
     1
  9
$PLINEGEN
 70
     0
  9
$PSLTSCALE
 70
     1
  9
$TREEDEPTH
 70
  3020
  9
$CMLSTYLE
  2
Standard
  9
$CMLJUST
 70
     0
  9
$CMLSCALE
 40
20.0
  9
$PROXYGRAPHICS
 70
     1
  9
$MEASUREMENT
 70
     1
  9
$CELWEIGHT
370
    -1
  9
$ENDCAPS
280
     0
  9
$JOINSTYLE
280
     0
  9
$LWDISPLAY
290
     1
  9
$INSUNITS
 70
     4
  9
$HYPERLINKBASE
  1

  9
$STYLESHEET
  1

  9
$XEDIT
290
     1
  9
$CEPSNTYPE
380
     0
  9
$PSTYLEMODE
290
     1
  9
$FINGERPRINTGUID
  2
{77001CD3-7DFA-4D14-89E0-1ACA3E7BA02B}
  9
$VERSIONGUID
  2
{FAEB1C32-E019-11D5-929B-00C0DF256EC4}
  9
$EXTNAMES
290
     1
  9
$PSVPSCALE
 40
0.0
  9
$OLESTARTUP
290
     0
  0
ENDSEC
  0
SECTION
  2
CLASSES
  0
CLASS
  1
ACDBDICTIONARYWDFLT
  2
AcDbDictionaryWithDefault
  3
ObjectDBX Classes
 90
        0
280
     0
281
     0
  0
CLASS
  1
VISUALSTYLE
  2
AcDbVisualStyle
  3
ObjectDBX Classes
 90
     4095
280
     0
281
     0
  0
CLASS
  1
MATERIAL
  2
AcDbMaterial
  3
ObjectDBX Classes
 90
     1153
280
     0
281
     0
  0
CLASS
  1
SCALE
  2
AcDbScale
  3
ObjectDBX Classes
 90
     1153
280
     0
281
     0
  0
CLASS
  1
TABLESTYLE
  2
AcDbTableStyle
  3
ObjectDBX Classes
 90
     4095
280
     0
281
     0
  0
CLASS
  1
MLEADERSTYLE
  2
AcDbMLeaderStyle
  3
ACDB_MLEADERSTYLE_CLASS
 90
     4095
280
     0
281
     0
  0
CLASS
  1
SUN
  2
AcDbSun
  3
SCENEOE
 90
     1153
280
     0
281
     0
  0
CLASS
  1
ACDBPLACEHOLDER
  2
AcDbPlaceHolder
  3
ObjectDBX Classes
 90
        0
280
     0
281
     0
  0
CLASS
  1
LAYOUT
  2
AcDbLayout
  3
ObjectDBX Classes
 90
        0
280
     0
281
     0
  0
ENDSEC
  0
SECTION
  2
TABLES
  0
TABLE
  2
VPORT
  5
8
330
0
100
AcDbSymbolTable
 70
     1
  0
VPORT
  5
29
330
8
100
AcDbSymbolTableRecord
100
AcDbViewportTableRecord
  2
*Active
 70
     0
 10
0.0
 20
0.0
 11
1.0
 21
1.0
 12
210.0
 22
148.5
 13
0.0
 23
0.0
 14
10.0
 24
10.0
 15
10.0
 25
10.0
 16
0.0
 26
0.0
 36
1.0
 17
0.0
 27
0.0
 37
0.0
 40
297.0
 41
1.4141414141
 42
50.0
 43
0.0
 44
0.0
 50
0.0
 51
0.0
 71
     0
 72
  2000
 73
     1
 74
     3
 75
     0
 76
     0
 77
     0
 78
     0
281
     0
 65
     1
110
0.0
120
0.0
130
0.0
111
1.0
121
0.0
131
0.0
112
0.0
122
1.0
132
0.0
 79
     0
146
0.0
  0
ENDTAB
  0
TABLE
  2
LTYPE
  5
5
330
0
100
AcDbSymbolTable
 70
     6
  0
LTYPE
  5
14
330
5
100
AcDbSymbolTableRecord
100
AcDbLinetypeTableRecord
  2
ByBlock
 70
     0
  3

 72
    65
 73
     0
 40
0.0
  0
LTYPE
  5
15
330
5
100
AcDbSymbolTableRecord
100
AcDbLinetypeTableRecord
  2
ByLayer
 70
     0
  3

 72
    65
 73
     0
 40
0.0
  0
LTYPE
  5
16
330
5
100
AcDbSymbolTableRecord
100
AcDbLinetypeTableRecord
  2
Continuous
 70
     0
  3
Solid line
 72
    65
 73
     0
 40
0.0
  0
LTYPE
  5
6E
330
5
100
AcDbSymbolTableRecord
100
AcDbLinetypeTableRecord
  2
HIDDEN
 70
     0
  3
Hidden __ __ __ __ __ __ __ __ __ __ __ __ __ __
 72
    65
 73
     2
 40
1.905
 49
1.27
 74
     0
 49
-0.635
 74
     0
  0
LTYPE
  5
6F
330
5
100
AcDbSymbolTableRecord
100
AcDbLinetypeTableRecord
  2
PHANTOM
 70
     0
  3
Phantom ______  __  __  ______  __  __  ______
 72
    65
 73
     6
 40
12.7
 49
6.35
 74
     0
 49
-1.27
 74
     0
 49
1.27
 74
     0
 49
-1.27
 74
     0
 49
1.27
 74
     0
 49
-1.27
 74
     0
  0
LTYPE
  5
70
330
5
100
AcDbSymbolTableRecord
100
AcDbLinetypeTableRecord
  2
CENTER
 70
     0
  3
Center ____ _ ____ _ ____ _ ____ _ ____ _ ____
 72
    65
 73
     4
 40
10.16
 49
6.35
 74
     0
 49
-1.27
 74
     0
 49
1.27
 74
     0
 49
-1.27
 74
     0
  0
LTYPE
  5
71
330
5
100
AcDbSymbolTableRecord
100
AcDbLinetypeTableRecord
  2
CENTERX2
 70
     0
  3
Center (2x) ________  __  ________  __  _____
 72
    65
 73
     4
 40
20.32
 49
12.7
 74
     0
 49
-2.54
 74
     0
 49
2.54
 74
     0
 49
-2.54
 74
     0
  0
LTYPE
  5
72
330
5
100
AcDbSymbolTableRecord
100
AcDbLinetypeTableRecord
  2
DOT2
 70
     0
  3
Dot (.5x) ........................................
 72
    65
 73
     2
 40
0.635
 49
0.0
 74
     0
 49
-0.635
 74
     0
  0
ENDTAB
  0
TABLE
  2
LAYER
  5
2
330
0
100
AcDbSymbolTable
 70
     6
  0
LAYER
  5
10
330
2
100
AcDbSymbolTableRecord
100
AcDbLayerTableRecord
  2
0
 70
     0
 62
     7
  6
Continuous
370
    -3
390
F
  0
LAYER
  5
73
330
2
100
AcDbSymbolTableRecord
100
AcDbLayerTableRecord
  2
FORMAT
 70
     0
 62
     7
  6
Continuous
370
    -3
390
F
  0
LAYER
  5
74
330
2
100
AcDbSymbolTableRecord
100
AcDbLayerTableRecord
  2
太線
 70
     0
 62
     7
  6
Continuous
370
    35
390
F
  0
LAYER
  5
75
330
2
100
AcDbSymbolTableRecord
100
AcDbLayerTableRecord
  2
設変0
 70
     0
 62
     7
  6
Continuous
370
    -3
390
F
  0
LAYER
  5
76
330
2
100
AcDbSymbolTableRecord
100
AcDbLayerTableRecord
  2
作図用
 70
     0
 62
     7
  6
Continuous
370
    -3
390
F
  0
LAYER
  5
77
330
2
100
AcDbSymbolTableRecord
100
AcDbLayerTableRecord
  2
点線
 70
     0
 62
     7
  6
HIDDEN
370
    -3
390
F
  0
ENDTAB
  0
TABLE
  2
STYLE
  5
3
330
0
100
AcDbSymbolTable
 70
    31
  0
STYLE
  5
11
330
3
100
AcDbSymbolTableRecord
100
AcDbTextStyleTableRecord
  2
Standard
 70
     0
 40
0.0
 41
1.0
 50
0.0
 71
     0
 42
3.5
  3
txt
  4
bigfont
  0
STYLE
  5
100
330
3
100
AcDbSymbolTableRecord
100
AcDbTextStyleTableRecord
  2
SLDTEXTSTYLE0
 70
     0
 40
0.0
 41
0.7
 50
0.0
 71
     0
 42
3.5
  3
TXT
  4
bigfont
  0
STYLE
  5
103
330
3
100
AcDbSymbolTableRecord
100
AcDbTextStyleTableRecord
  2
SLDTEXTSTYLE1
 70
     0
 40
0.0
 41
0.9347633011
 50
0.0
 71
     0
 42
3.5
  3
TXT
  4
bigfont
  0
STYLE
  5
105
330
3
100
AcDbSymbolTableRecord
100
AcDbTextStyleTableRecord
  2
SLDTEXTSTYLE2
 70
     0
 40
0.0
 41
0.8381134104
 50
0.0
 71
     0
 42
3.5
  3
TXT
  4
bigfont
  0
STYLE
  5
107
330
3
100
AcDbSymbolTableRecord
100
AcDbTextStyleTableRecord
  2
SLDTEXTSTYLE3
 70
     0
 40
0.0
 41
0.8368171345
 50
0.0
 71
     0
 42
3.5
  3
TXT
  4
bigfont
  0
STYLE
  5
109
330
3
100
AcDbSymbolTableRecord
100
AcDbTextStyleTableRecord
  2
SLDTEXTSTYLE4
 70
     0
 40
0.0
 41
0.84
 50
0.0
 71
     0
 42
3.5
  3
TXT
  4
bigfont
  0
STYLE
  5
10D
330
3
100
AcDbSymbolTableRecord
100
AcDbTextStyleTableRecord
  2
SLDTEXTSTYLE5
 70
     0
 40
0.0
 41
0.466666669
 50
0.0
 71
     0
 42
3.5
  3
TXT
  4
bigfont
  0
STYLE
  5
116
330
3
100
AcDbSymbolTableRecord
100
AcDbTextStyleTableRecord
  2
SLDTEXTSTYLE6
 70
     0
 40
0.0
 41
0.8288540274
 50
0.0
 71
     0
 42
3.5
  3
TXT
  4
bigfont
  0
STYLE
  5
118
330
3
100
AcDbSymbolTableRecord
100
AcDbTextStyleTableRecord
  2
SLDTEXTSTYLE7
 70
     0
 40
0.0
 41
0.8088321234
 50
0.0
 71
     0
 42
3.5
  3
TXT
  4
bigfont
  0
STYLE
  5
11A
330
3
100
AcDbSymbolTableRecord
100
AcDbTextStyleTableRecord
  2
SLDTEXTSTYLE8
 70
     0
 40
0.0
 41
0.780339084
 50
0.0
 71
     0
 42
3.5
  3
TXT
  4
bigfont
  0
STYLE
  5
11C
330
3
100
AcDbSymbolTableRecord
100
AcDbTextStyleTableRecord
  2
SLDTEXTSTYLE9
 70
     0
 40
0.0
 41
0.8293860372
 50
0.0
 71
     0
 42
3.5
  3
TXT
  4
bigfont
  0
STYLE
  5
11E
330
3
100
AcDbSymbolTableRecord
100
AcDbTextStyleTableRecord
  2
SLDTEXTSTYLE10
 70
     0
 40
0.0
 41
0.9381829933
 50
0.0
 71
     0
 42
3.5
  3
TXT
  4
bigfont
  0
STYLE
  5
120
330
3
100
AcDbSymbolTableRecord
100
AcDbTextStyleTableRecord
  2
SLDTEXTSTYLE11
 70
     0
 40
0.0
 41
0.851741268
 50
0.0
 71
     0
 42
3.5
  3
TXT
  4
bigfont
  0
STYLE
  5
123
330
3
100
AcDbSymbolTableRecord
100
AcDbTextStyleTableRecord
  2
SLDTEXTSTYLE12
 70
     0
 40
0.0
 41
0.719248152
 50
0.0
 71
     0
 42
3.5
  3
TXT
  4
bigfont
  0
STYLE
  5
125
330
3
100
AcDbSymbolTableRecord
100
AcDbTextStyleTableRecord
  2
SLDTEXTSTYLE13
 70
     0
 40
0.0
 41
0.8121071616
 50
0.0
 71
     0
 42
3.5
  3
TXT
  4
bigfont
  0
STYLE
  5
127
330
3
100
AcDbSymbolTableRecord
100
AcDbTextStyleTableRecord
  2
SLDTEXTSTYLE14
 70
     0
 40
0.0
 41
0.7706230224
 50
0.0
 71
     0
 42
3.5
  3
TXT
  4
bigfont
  0
STYLE
  5
129
330
3
100
AcDbSymbolTableRecord
100
AcDbTextStyleTableRecord
  2
SLDTEXTSTYLE15
 70
     0
 40
0.0
 41
0.7973422044
 50
0.0
 71
     0
 42
3.5
  3
TXT
  4
bigfont
  0
STYLE
  5
12B
330
3
100
AcDbSymbolTableRecord
100
AcDbTextStyleTableRecord
  2
SLDTEXTSTYLE16
 70
     0
 40
0.0
 41
0.858372984
 50
0.0
 71
     0
 42
3.5
  3
TXT
  4
bigfont
  0
STYLE
  5
12D
330
3
100
AcDbSymbolTableRecord
100
AcDbTextStyleTableRecord
  2
SLDTEXTSTYLE17
 70
     0
 40
0.0
 41
0.8213352588
 50
0.0
 71
     0
 42
3.5
  3
TXT
  4
bigfont
  0
STYLE
  5
12F
330
3
100
AcDbSymbolTableRecord
100
AcDbTextStyleTableRecord
  2
SLDTEXTSTYLE18
 70
     0
 40
0.0
 41
0.7910772324
 50
0.0
 71
     0
 42
3.5
  3
TXT
  4
bigfont
  0
STYLE
  5
131
330
3
100
AcDbSymbolTableRecord
100
AcDbTextStyleTableRecord
  2
SLDTEXTSTYLE19
 70
     0
 40
0.0
 41
0.7599353412
 50
0.0
 71
     0
 42
3.5
  3
TXT
  4
bigfont
  0
STYLE
  5
134
330
3
100
AcDbSymbolTableRecord
100
AcDbTextStyleTableRecord
  2
SLDTEXTSTYLE20
 70
     0
 40
0.0
 41
0.7790601336
 50
0.0
 71
     0
 42
3.5
  3
TXT
  4
bigfont
  0
STYLE
  5
136
330
3
100
AcDbSymbolTableRecord
100
AcDbTextStyleTableRecord
  2
SLDTEXTSTYLE21
 70
     0
 40
0.0
 41
0.7251541332
 50
0.0
 71
     0
 42
3.5
  3
TXT
  4
bigfont
  0
STYLE
  5
139
330
3
100
AcDbSymbolTableRecord
100
AcDbTextStyleTableRecord
  2
SLDTEXTSTYLE22
 70
     0
 40
0.0
 41
0.8180131428
 50
0.0
 71
     0
 42
3.5
  3
TXT
  4
bigfont
  0
STYLE
  5
13B
330
3
100
AcDbSymbolTableRecord
100
AcDbTextStyleTableRecord
  2
SLDTEXTSTYLE23
 70
     0
 40
0.0
 41
0.7218730344
 50
0.0
 71
     0
 42
3.5
  3
TXT
  4
bigfont
  0
STYLE
  5
13E
330
3
100
AcDbSymbolTableRecord
100
AcDbTextStyleTableRecord
  2
SLDTEXTSTYLE24
 70
     0
 40
0.0
 41
0.8339245488
 50
0.0
 71
     0
 42
3.5
  3
TXT
  4
bigfont
  0
STYLE
  5
140
330
3
100
AcDbSymbolTableRecord
100
AcDbTextStyleTableRecord
  2
SLDTEXTSTYLE25
 70
     0
 40
0.0
 41
0.7566825756
 50
0.0
 71
     0
 42
3.5
  3
TXT
  4
bigfont
  0
STYLE
  5
14F
330
3
100
AcDbSymbolTableRecord
100
AcDbTextStyleTableRecord
  2
SLDTEXTSTYLE26
 70
     0
 40
0.0
 41
0.860070624
 50
0.0
 71
     0
 42
3.5
  3
TXT
  4
bigfont
  0
STYLE
  5
151
330
3
100
AcDbSymbolTableRecord
100
AcDbTextStyleTableRecord
  2
SLDTEXTSTYLE27
 70
     0
 40
0.0
 41
1.031377368
 50
0.0
 71
     0
 42
3.5
  3
TXT
  4
bigfont
  0
STYLE
  5
15B
330
3
100
AcDbSymbolTableRecord
100
AcDbTextStyleTableRecord
  2
SLDTEXTSTYLE28
 70
     0
 40
0.0
 41
0.956810652
 50
0.0
 71
     0
 42
3.5
  3
TXT
  4
bigfont
  0
STYLE
  5
15D
330
3
100
AcDbSymbolTableRecord
100
AcDbTextStyleTableRecord
  2
SLDTEXTSTYLE29
 70
     0
 40
0.0
 41
0.866247228
 50
0.0
 71
     0
 42
3.5
  3
TXT
  4
bigfont
  0
ENDTAB
  0
TABLE
  2
VIEW
  5
6
330
0
100
AcDbSymbolTable
 70
     0
  0
ENDTAB
  0
TABLE
  2
UCS
  5
7
330
0
100
AcDbSymbolTable
 70
     0
  0
ENDTAB
  0
TABLE
  2
APPID
  5
9
330
0
100
AcDbSymbolTable
 70
     1
  0
APPID
  5
12
330
9
100
AcDbSymbolTableRecord
100
AcDbRegAppTableRecord
  2
ACAD
 70
     0
  0
ENDTAB
  0
TABLE
  2
DIMSTYLE
  5
A
330
0
100
AcDbSymbolTable
 70
     3
100
AcDbDimStyleTable
  0
DIMSTYLE
105
27
330
A
100
AcDbSymbolTableRecord
100
AcDbDimStyleTableRecord
  2
ISO-25
 70
     0
 41
2.5
 42
0.625
 43
3.75
 44
1.25
 73
     0
 74
     0
 77
     1
 78
     8
140
2.5
141
2.5
143
0.0393700787
147
0.625
171
     3
172
     1
178
     0
271
     2
272
     2
274
     3
278
    44
283
     0
284
     8
340
11
  0
DIMSTYLE
105
316
102
{ACAD_REACTORS
330
315
102
}
330
A
100
AcDbSymbolTableRecord
100
AcDbDimStyleTableRecord
  2
SLDDIMSTYLE0
 70
     0
 41
3.0
 44
0.0
 45
0.000000001
 73
     0
 74
     0
 77
     1
 78
    12
 79
     3
140
3.5
147
0.875
173
     1
178
     0
271
     2
272
     2
276
     2
284
    12
340
100
341
317
343
317
344
317
  0
DIMSTYLE
105
32C
330
A
100
AcDbSymbolTableRecord
100
AcDbDimStyleTableRecord
  2
SLDDIMSTYLE1
 70
     0
 41
1.0
 44
0.0
 45
0.000000001
147
0.0
173
     1
178
     0
271
     0
272
     0
276
     2
340
11
341
32D
343
32D
344
32D
  0
ENDTAB
  0
TABLE
  2
BLOCK_RECORD
  5
1
330
0
100
AcDbSymbolTable
 70
    13
  0
BLOCK_RECORD
  5
1F
330
1
100
AcDbSymbolTableRecord
100
AcDbBlockTableRecord
  2
*Model_Space
340
22
  0
BLOCK_RECORD
  5
1B
330
1
100
AcDbSymbolTableRecord
100
AcDbBlockTableRecord
  2
*Paper_Space
340
1E
  0
BLOCK_RECORD
  5
23
330
1
100
AcDbSymbolTableRecord
100
AcDbBlockTableRecord
  2
*Paper_Space0
340
26
  0
BLOCK_RECORD
  5
161
330
1
100
AcDbSymbolTableRecord
100
AcDbBlockTableRecord
  2
SW_NOTE_0
340
0
102
{BLKREFS
331
168
102
}
  0
BLOCK_RECORD
  5
169
330
1
100
AcDbSymbolTableRecord
100
AcDbBlockTableRecord
  2
SW_NOTE_1
340
0
102
{BLKREFS
331
170
102
}
  0
BLOCK_RECORD
  5
173
330
1
100
AcDbSymbolTableRecord
100
AcDbBlockTableRecord
  2
SW_NOTE_2
340
0
102
{BLKREFS
331
17A
102
}
  0
BLOCK_RECORD
  5
17B
330
1
100
AcDbSymbolTableRecord
100
AcDbBlockTableRecord
  2
SW_NOTE_3
340
0
102
{BLKREFS
331
182
102
}
  0
BLOCK_RECORD
  5
188
330
1
100
AcDbSymbolTableRecord
100
AcDbBlockTableRecord
  2
SW_TABLEANNOTATION_0
340
0
102
{BLKREFS
331
1A9
102
}
  0
BLOCK_RECORD
  5
317
330
1
100
AcDbSymbolTableRecord
100
AcDbBlockTableRecord
  2
_OPEN30
340
0
102
{BLKREFS
331
320
331
321
102
}
  0
BLOCK_RECORD
  5
31D
330
1
100
AcDbSymbolTableRecord
100
AcDbBlockTableRecord
  2
_D
340
0
  0
BLOCK_RECORD
  5
326
330
1
100
AcDbSymbolTableRecord
100
AcDbBlockTableRecord
  2
SW_NOTE_4
340
0
102
{BLKREFS
331
32B
102
}
  0
BLOCK_RECORD
  5
32D
330
1
100
AcDbSymbolTableRecord
100
AcDbBlockTableRecord
  2
_DOT
340
0
  0
BLOCK_RECORD
  5
336
330
1
100
AcDbSymbolTableRecord
100
AcDbBlockTableRecord
  2
SW_NOTE_5
340
0
102
{BLKREFS
331
33B
102
}
  0
BLOCK_RECORD
  5
33D
330
1
100
AcDbSymbolTableRecord
100
AcDbBlockTableRecord
  2
SW_NOTE_6
340
0
102
{BLKREFS
331
342
102
}
  0
BLOCK_RECORD
  5
346
330
1
100
AcDbSymbolTableRecord
100
AcDbBlockTableRecord
  2
SW_NOTE_7
340
0
102
{BLKREFS
331
34D
102
}
  0
ENDTAB
  0
ENDSEC
  0
SECTION
  2
BLOCKS
  0
BLOCK
  5
20
330
1F
100
AcDbEntity
  8
0
100
AcDbBlockBegin
  2
*Model_Space
 70
     0
 10
0.0
 20
0.0
 30
0.0
  3
*Model_Space
  1

  0
ENDBLK
  5
21
330
1F
100
AcDbEntity
  8
0
100
AcDbBlockEnd
  0
BLOCK
  5
1C
330
1B
100
AcDbEntity
 67
     1
  8
0
100
AcDbBlockBegin
  2
*Paper_Space
 70
     0
 10
0.0
 20
0.0
 30
0.0
  3
*Paper_Space
  1

  0
ENDBLK
  5
1D
330
1B
100
AcDbEntity
 67
     1
  8
0
100
AcDbBlockEnd
  0
BLOCK
  5
24
330
23
100
AcDbEntity
  8
0
100
AcDbBlockBegin
  2
*Paper_Space0
 70
     0
 10
0.0
 20
0.0
 30
0.0
  3
*Paper_Space0
  1

  0
ENDBLK
  5
25
330
23
100
AcDbEntity
  8
0
100
AcDbBlockEnd
  0
BLOCK
  5
162
330
161
100
AcDbEntity
  8
0
100
AcDbBlockBegin
  2
SW_NOTE_0
 70
     0
 10
0.0
 20
0.0
 30
0.0
  3
SW_NOTE_0
  1

  0
LINE
  5
164
330
161
100
AcDbEntity
  8
FORMAT
 62
     0
100
AcDbLine
 10
-1.62941074
 20
0.0
 30
0.0
 11
0.6538638263
 21
3.9547475565
 31
0.0
  0
LINE
  5
165
330
161
100
AcDbEntity
  8
FORMAT
 62
     0
100
AcDbLine
 10
0.6538638263
 20
3.9547475565
 30
0.0
 11
2.9371383926
 21
0.0
 31
0.0
  0
LINE
  5
166
330
161
100
AcDbEntity
  8
FORMAT
 62
     0
100
AcDbLine
 10
2.9371383926
 20
0.0
 30
0.0
 11
-1.62941074
 21
0.0
 31
0.0
  0
MTEXT
  5
167
330
161
100
AcDbEntity
  8
FORMAT
 62
     0
100
AcDbMText
 10
0.0
 20
2.7285267159
 30
0.0
 40
2.1166666667
 41
0.0
 71
     1
 72
     1
  1
1
  7
SLDTEXTSTYLE0
 73
     1
 44
1.0
  0
ENDBLK
  5
163
330
161
100
AcDbEntity
  8
0
100
AcDbBlockEnd
  0
BLOCK
  5
16A
330
169
100
AcDbEntity
  8
0
100
AcDbBlockBegin
  2
SW_NOTE_1
 70
     0
 10
0.0
 20
0.0
 30
0.0
  3
SW_NOTE_1
  1

  0
LINE
  5
16C
330
169
100
AcDbEntity
  8
FORMAT
 62
     0
100
AcDbLine
 10
-1.62941074
 20
0.0
 30
0.0
 11
0.6933063269
 21
4.0230639715
 31
0.0
  0
LINE
  5
16D
330
169
100
AcDbEntity
  8
FORMAT
 62
     0
100
AcDbLine
 10
0.6933063269
 20
4.0230639715
 30
0.0
 11
3.0160233938
 21
0.0
 31
0.0
  0
LINE
  5
16E
330
169
100
AcDbEntity
  8
FORMAT
 62
     0
100
AcDbLine
 10
3.0160233938
 20
0.0
 30
0.0
 11
-1.62941074
 21
0.0
 31
0.0
  0
MTEXT
  5
16F
330
169
100
AcDbEntity
  8
FORMAT
 62
     0
100
AcDbMText
 10
0.0
 20
2.7285267159
 30
0.0
 40
2.1166666667
 41
0.0
 71
     1
 72
     1
  1
0
  7
SLDTEXTSTYLE0
 73
     1
 44
1.0
  0
ENDBLK
  5
16B
330
169
100
AcDbEntity
  8
0
100
AcDbBlockEnd
  0
BLOCK
  5
174
330
173
100
AcDbEntity
  8
0
100
AcDbBlockBegin
  2
SW_NOTE_2
 70
     0
 10
0.0
 20
0.0
 30
0.0
  3
SW_NOTE_2
  1

  0
LINE
  5
176
330
173
100
AcDbEntity
  8
FORMAT
 62
     0
100
AcDbLine
 10
-1.62941074
 20
0.0
 30
0.0
 11
0.6876717089
 21
4.0133045268
 31
0.0
  0
LINE
  5
177
330
173
100
AcDbEntity
  8
FORMAT
 62
     0
100
AcDbLine
 10
0.6876717089
 20
4.0133045268
 30
0.0
 11
3.0047541578
 21
0.0
 31
0.0
  0
LINE
  5
178
330
173
100
AcDbEntity
  8
FORMAT
 62
     0
100
AcDbLine
 10
3.0047541578
 20
0.0
 30
0.0
 11
-1.62941074
 21
0.0
 31
0.0
  0
MTEXT
  5
179
330
173
100
AcDbEntity
  8
FORMAT
 62
     0
100
AcDbMText
 10
0.0
 20
2.7285267159
 30
0.0
 40
2.1166666667
 41
0.0
 71
     1
 72
     1
  1
3
  7
SLDTEXTSTYLE0
 73
     1
 44
1.0
  0
ENDBLK
  5
175
330
173
100
AcDbEntity
  8
0
100
AcDbBlockEnd
  0
BLOCK
  5
17C
330
17B
100
AcDbEntity
  8
0
100
AcDbBlockBegin
  2
SW_NOTE_3
 70
     0
 10
0.0
 20
0.0
 30
0.0
  3
SW_NOTE_3
  1

  0
LINE
  5
17E
330
17B
100
AcDbEntity
  8
FORMAT
 62
     0
100
AcDbLine
 10
-1.62941074
 20
0.0
 30
0.0
 11
0.6876717089
 21
4.0133045268
 31
0.0
  0
LINE
  5
17F
330
17B
100
AcDbEntity
  8
FORMAT
 62
     0
100
AcDbLine
 10
0.6876717089
 20
4.0133045268
 30
0.0
 11
3.0047541578
 21
0.0
 31
0.0
  0
LINE
  5
180
330
17B
100
AcDbEntity
  8
FORMAT
 62
     0
100
AcDbLine
 10
3.0047541578
 20
0.0
 30
0.0
 11
-1.62941074
 21
0.0
 31
0.0
  0
MTEXT
  5
181
330
17B
100
AcDbEntity
  8
FORMAT
 62
     0
100
AcDbMText
 10
0.0
 20
2.7285267159
 30
0.0
 40
2.1166666667
 41
0.0
 71
     1
 72
     1
  1
2
  7
SLDTEXTSTYLE0
 73
     1
 44
1.0
  0
ENDBLK
  5
17D
330
17B
100
AcDbEntity
  8
0
100
AcDbBlockEnd
  0
BLOCK
  5
189
330
188
100
AcDbEntity
  8
0
100
AcDbBlockBegin
  2
SW_TABLEANNOTATION_0
 70
     0
 10
0.0
 20
0.0
 30
0.0
  3
SW_TABLEANNOTATION_0
  1

  0
LINE
  5
18B
330
188
100
AcDbEntity
  8
FORMAT
 62
     0
100
AcDbLine
 10
0.0
 20
0.0
 30
0.0
 11
0.0
 21
-20.4084359945
 31
0.0
  0
LINE
  5
18C
330
188
100
AcDbEntity
  8
FORMAT
 62
     0
100
AcDbLine
 10
0.0
 20
-20.4084359945
 30
0.0
 11
227.936701283
 21
-20.4084359945
 31
0.0
  0
LINE
  5
18D
330
188
100
AcDbEntity
  8
FORMAT
 62
     0
100
AcDbLine
 10
227.936701283
 20
-20.4084359945
 30
0.0
 11
227.936701283
 21
0.0
 31
0.0
  0
LINE
  5
18E
330
188
100
AcDbEntity
  8
FORMAT
 62
     0
100
AcDbLine
 10
227.936701283
 20
0.0
 30
0.0
 11
0.0
 21
0.0
 31
0.0
  0
LINE
  5
18F
330
188
100
AcDbEntity
  8
FORMAT
 62
     0
100
AcDbLine
 10
62.2830238016
 20
0.0
 30
0.0
 11
62.2830238016
 21
-20.4084359945
 31
0.0
  0
LINE
  5
190
330
188
100
AcDbEntity
  8
FORMAT
 62
     0
100
AcDbLine
 10
73.8038530773
 20
0.0
 30
0.0
 11
73.8038530773
 21
-20.4084359945
 31
0.0
  0
LINE
  5
191
330
188
100
AcDbEntity
  8
FORMAT
 62
     0
100
AcDbLine
 10
104.0999650312
 20
0.0
 30
0.0
 11
104.0999650312
 21
-20.4084359945
 31
0.0
  0
LINE
  5
192
330
188
100
AcDbEntity
  8
FORMAT
 62
     0
100
AcDbLine
 10
180.3292523115
 20
0.0
 30
0.0
 11
180.3292523115
 21
-20.4084359945
 31
0.0
  0
LINE
  5
193
330
188
100
AcDbEntity
  8
FORMAT
 62
     0
100
AcDbLine
 10
210.6253642654
 20
0.0
 30
0.0
 11
210.6253642654
 21
-20.4084359945
 31
0.0
  0
LINE
  5
194
330
188
100
AcDbEntity
  8
FORMAT
 62
     0
100
AcDbLine
 10
0.0
 20
-9.8402768597
 30
0.0
 11
227.936701283
 21
-9.8402768597
 31
0.0
  0
LINE
  5
195
330
188
100
AcDbEntity
  8
FORMAT
 62
     0
100
AcDbLine
 10
62.2830238016
 20
-15.3348249996
 30
0.0
 11
227.936701283
 21
-15.3348249996
 31
0.0
  0
MTEXT
  5
196
330
188
100
AcDbEntity
  8
FORMAT
 62
     0
100
AcDbMText
 10
7.2758866385
 20
-0.4507810789
 30
0.0
 40
3.5
 41
0.0
 71
     1
 72
     1
  1
SUB ASSEMBLY PART NO.
  7
SLDTEXTSTYLE0
 73
     1
 44
1.0
  0
MTEXT
  5
197
330
188
100
AcDbEntity
  8
FORMAT
 62
     0
100
AcDbMText
 10
18.0675534443
 20
-4.9507808852
 30
0.0
 40
3.5
 41
0.0
 71
     1
 72
     1
  1
AND CH CODE
  7
SLDTEXTSTYLE0
 73
     1
 44
1.0
  0
MTEXT
  5
198
330
188
100
AcDbEntity
  8
FORMAT
 62
     0
100
AcDbMText
 10
64.8861466453
 20
-2.7007807493
 30
0.0
 40
3.5
 41
0.0
 71
     1
 72
     1
  1
NO.
  7
SLDTEXTSTYLE0
 73
     1
 44
1.0
  0
MTEXT
  5
199
330
188
100
AcDbEntity
  8
FORMAT
 62
     0
100
AcDbMText
 10
80.1557284558
 20
-0.4507810789
 30
0.0
 40
3.5
 41
0.0
 71
     1
 72
     1
  1
PART NO.
  7
SLDTEXTSTYLE0
 73
     1
 44
1.0
  0
MTEXT
  5
19A
330
188
100
AcDbEntity
  8
FORMAT
 62
     0
100
AcDbMText
 10
75.464756299
 20
-4.9507808852
 30
0.0
 40
3.5
 41
0.0
 71
     1
 72
     1
  1
AND CH. CODE
  7
SLDTEXTSTYLE0
 73
     1
 44
1.0
  0
MTEXT
  5
19B
330
188
100
AcDbEntity
  8
FORMAT
 62
     0
100
AcDbMText
 10
131.3159971631
 20
-2.7007807493
 30
0.0
 40
3.5
 41
0.0
 71
     1
 72
     1
  1
PART NAME
  7
SLDTEXTSTYLE0
 73
     1
 44
1.0
  0
MTEXT
  5
19C
330
188
100
AcDbEntity
  8
FORMAT
 62
     0
100
AcDbMText
 10
188.8759192566
 20
-2.7007807493
 30
0.0
 40
3.5
 41
0.0
 71
     1
 72
     1
  1
COLOR
  7
SLDTEXTSTYLE0
 73
     1
 44
1.0
  0
MTEXT
  5
19D
330
188
100
AcDbEntity
  8
FORMAT
 62
     0
100
AcDbMText
 10
215.4407548714
 20
-2.7007807493
 30
0.0
 40
3.5
 41
0.0
 71
     1
 72
     1
  1
QTY
  7
SLDTEXTSTYLE0
 73
     1
 44
1.0
  0
MTEXT
  5
19E
330
188
100
AcDbEntity
  8
FORMAT
 62
     0
100
AcDbMText
 10
19.2001916379
 20
-12.6494250682
 30
0.0
 40
3.5
 41
0.0
 71
     1
 72
     1
  1
YDR79020006
  7
SLDTEXTSTYLE0
 73
     1
 44
1.0
  0
MTEXT
  5
19F
330
188
100
AcDbEntity
  8
FORMAT
 62
     0
100
AcDbMText
 10
66.006632942
 20
-10.1126195707
 30
0.0
 40
3.5
 41
0.0
 71
     1
 72
     1
  1
①
  7
SLDTEXTSTYLE0
 73
     1
 44
1.0
  0
MTEXT
  5
1A0
330
188
100
AcDbEntity
  8
FORMAT
 62
     0
100
AcDbMText
 10
77.0105887914
 20
-10.1126195707
 30
0.0
 40
3.5
 41
0.0
 71
     1
 72
     1
  1
YDR79018066
  7
SLDTEXTSTYLE0
 73
     1
 44
1.0
  0
MTEXT
  5
1A1
330
188
100
AcDbEntity
  8
FORMAT
 62
     0
100
AcDbMText
 10
107.8975920698
 20
-10.1126195707
 30
0.0
 40
3.5
 41
0.0
 71
     1
 72
     1
  1
EGy防水コネクタ 器具取付 レセプタクル
  7
SLDTEXTSTYLE0
 73
     1
 44
1.0
  0
MTEXT
  5
1A2
330
188
100
AcDbEntity
  8
FORMAT
 62
     0
100
AcDbMText
 10
183.0571699443
 20
-10.1126195707
 30
0.0
 40
3.5
 41
0.0
 71
     1
 72
     1
  1
BLACK/GRAY
  7
SLDTEXTSTYLE0
 73
     1
 44
1.0
  0
MTEXT
  5
1A3
330
188
100
AcDbEntity
  8
FORMAT
 62
     0
100
AcDbMText
 10
218.2626300255
 20
-10.1126195707
 30
0.0
 40
3.5
 41
0.0
 71
     1
 72
     1
  1
1
  7
SLDTEXTSTYLE0
 73
     1
 44
1.0
  0
MTEXT
  5
1A4
330
188
100
AcDbEntity
  8
FORMAT
 62
     0
100
AcDbMText
 10
66.006632942
 20
-15.3966991381
 30
0.0
 40
3.5
 41
0.0
 71
     1
 72
     1
  1
②
  7
SLDTEXTSTYLE0
 73
     1
 44
1.0
  0
MTEXT
  5
1A5
330
188
100
AcDbEntity
  8
FORMAT
 62
     0
100
AcDbMText
 10
77.0105887914
 20
-15.3966991381
 30
0.0
 40
3.5
 41
0.0
 71
     1
 72
     1
  1
YDR79020001
  7
SLDTEXTSTYLE0
 73
     1
 44
1.0
  0
MTEXT
  5
1A6
330
188
100
AcDbEntity
  8
FORMAT
 62
     0
100
AcDbMText
 10
121.9316211662
 20
-15.3966991381
 30
0.0
 40
3.5
 41
0.0
 71
     1
 72
     1
  1
EGy防水コネクタ プラグ
  7
SLDTEXTSTYLE0
 73
     1
 44
1.0
  0
MTEXT
  5
1A7
330
188
100
AcDbEntity
  8
FORMAT
 62
     0
100
AcDbMText
 10
183.0571699443
 20
-15.3966991381
 30
0.0
 40
3.5
 41
0.0
 71
     1
 72
     1
  1
BLACK/GRAY
  7
SLDTEXTSTYLE0
 73
     1
 44
1.0
  0
MTEXT
  5
1A8
330
188
100
AcDbEntity
  8
FORMAT
 62
     0
100
AcDbMText
 10
218.2626300255
 20
-15.3966991381
 30
0.0
 40
3.5
 41
0.0
 71
     1
 72
     1
  1
1
  7
SLDTEXTSTYLE0
 73
     1
 44
1.0
  0
ENDBLK
  5
18A
330
188
100
AcDbEntity
  8
0
100
AcDbBlockEnd
  0
BLOCK
  5
318
330
317
100
AcDbEntity
  8
0
100
AcDbBlockBegin
  2
_OPEN30
 70
     0
 10
0.0
 20
0.0
 30
0.0
  3
_OPEN30
  1

  0
LINE
  5
31A
330
317
100
AcDbEntity
  8
0
  6
ByBlock
 62
     0
370
    -2
100
AcDbLine
 10
-1.0
 20
0.267949
 30
0.0
 11
0.0
 21
0.0
 31
0.0
  0
LINE
  5
31B
330
317
100
AcDbEntity
  8
0
  6
ByBlock
 62
     0
370
    -2
100
AcDbLine
 10
0.0
 20
0.0
 30
0.0
 11
-1.0
 21
-0.267949
 31
0.0
  0
LINE
  5
31C
330
317
100
AcDbEntity
  8
0
  6
ByBlock
 62
     0
370
    -2
100
AcDbLine
 10
0.0
 20
0.0
 30
0.0
 11
-1.0
 21
0.0
 31
0.0
  0
ENDBLK
  5
319
330
317
100
AcDbEntity
  8
0
100
AcDbBlockEnd
  0
BLOCK
  5
31E
330
31D
100
AcDbEntity
  8
0
100
AcDbBlockBegin
  2
_D
 70
     0
 10
0.0
 20
0.0
 30
0.0
  3
_D
  1

  0
INSERT
  5
320
330
31D
100
AcDbEntity
  8
FORMAT
100
AcDbBlockReference
  2
_OPEN30
 10
154.5898442968
 20
116.9780176655
 30
0.0
 41
3.0
 42
3.0
 50
180.0
  0
INSERT
  5
321
330
31D
100
AcDbEntity
  8
FORMAT
100
AcDbBlockReference
  2
_OPEN30
 10
277.4898442968
 20
116.9780176655
 30
0.0
 41
3.0
 42
3.0
 50
0.0
  0
LINE
  5
322
330
31D
100
AcDbEntity
  8
FORMAT
100
AcDbLine
 10
154.5898442968
 20
125.9780182019
 30
0.0
 11
154.5898442968
 21
115.9780176655
 31
0.0
  0
LINE
  5
323
330
31D
100
AcDbEntity
  8
FORMAT
100
AcDbLine
 10
277.4898442968
 20
159.5919052094
 30
0.0
 11
277.4898442968
 21
115.9780176655
 31
0.0
  0
LINE
  5
324
330
31D
100
AcDbEntity
  8
FORMAT
100
AcDbLine
 10
154.5898442968
 20
116.9780176655
 30
0.0
 11
277.4898442968
 21
116.9780176655
 31
0.0
  0
MTEXT
  5
325
330
31D
100
AcDbEntity
  8
FORMAT
100
AcDbMText
 10
180.0190065726
 20
121.4897545218
 30
0.0
 40
3.5
 41
0.0
 71
     1
 72
     1
  1
約123mm (照明器具筐体壁面からの寸法)
  7
SLDTEXTSTYLE0
 73
     1
 44
1.0
  0
ENDBLK
  5
31F
330
31D
100
AcDbEntity
  8
0
100
AcDbBlockEnd
  0
BLOCK
  5
327
330
326
100
AcDbEntity
  8
0
100
AcDbBlockBegin
  2
SW_NOTE_4
 70
     0
 10
0.0
 20
0.0
 30
0.0
  3
SW_NOTE_4
  1

  0
CIRCLE
  5
329
330
326
100
AcDbEntity
  8
FORMAT
 62
     0
100
AcDbCircle
 10
-1.3392519883
 20
2.325082869
 30
0.0
 40
2.683208198397415
  0
MTEXT
  5
32A
330
326
100
AcDbEntity
  8
FORMAT
 62
     0
100
AcDbMText
 10
-1.3185922371
 20
4.5865387042
 30
0.0
 40
3.5
 41
0.0
 71
     2
 72
     1
  1
1
  7
SLDTEXTSTYLE0
 73
     1
 44
1.0
  0
ENDBLK
  5
328
330
326
100
AcDbEntity
  8
0
100
AcDbBlockEnd
  0
BLOCK
  5
32E
330
32D
100
AcDbEntity
  8
0
100
AcDbBlockBegin
  2
_DOT
 70
     0
 10
0.0
 20
0.0
 30
0.0
  3
_DOT
  1

  0
POLYLINE
  5
330
330
32D
100
AcDbEntity
  8
0
  6
ByBlock
 62
     0
100
AcDb2dPolyline
 66
     1
 10
0.0
 20
0.0
 30
0.0
 70
     1
 40
0.5
 41
0.5
  0
VERTEX
  5
332
330
330
100
AcDbEntity
  8
0
  6
ByBlock
 62
     0
100
AcDbVertex
100
AcDb2dVertex
 10
-0.25
 20
0.0
 30
0.0
 42
1.0
  0
VERTEX
  5
333
330
330
100
AcDbEntity
  8
0
  6
ByBlock
 62
     0
100
AcDbVertex
100
AcDb2dVertex
 10
0.25
 20
0.0
 30
0.0
 42
1.0
  0
SEQEND
  5
334
330
330
100
AcDbEntity
  8
0
  6
ByBlock
 62
     0
  0
LINE
  5
331
330
32D
100
AcDbEntity
  8
0
  6
ByBlock
 62
     0
370
    -2
100
AcDbLine
 10
-0.5
 20
0.0
 30
0.0
 11
-1.0
 21
0.0
 31
0.0
  0
ENDBLK
  5
32F
330
32D
100
AcDbEntity
  8
0
100
AcDbBlockEnd
  0
BLOCK
  5
337
330
336
100
AcDbEntity
  8
0
100
AcDbBlockBegin
  2
SW_NOTE_5
 70
     0
 10
0.0
 20
0.0
 30
0.0
  3
SW_NOTE_5
  1

  0
CIRCLE
  5
339
330
336
100
AcDbEntity
  8
FORMAT
 62
     0
100
AcDbCircle
 10
1.1939529485
 20
2.4029320824
 30
0.0
 40
2.683208198397399
  0
MTEXT
  5
33A
330
336
100
AcDbEntity
  8
FORMAT
 62
     0
100
AcDbMText
 10
1.2146126997
 20
4.6643879177
 30
0.0
 40
3.5
 41
0.0
 71
     2
 72
     1
  1
2
  7
SLDTEXTSTYLE0
 73
     1
 44
1.0
  0
ENDBLK
  5
338
330
336
100
AcDbEntity
  8
0
100
AcDbBlockEnd
  0
BLOCK
  5
33E
330
33D
100
AcDbEntity
  8
0
100
AcDbBlockBegin
  2
SW_NOTE_6
 70
     0
 10
0.0
 20
0.0
 30
0.0
  3
SW_NOTE_6
  1

  0
LINE
  5
340
330
33D
100
AcDbEntity
  8
FORMAT
 62
     0
100
AcDbLine
 10
-24.5541509777
 20
0.0
 30
0.0
 11
0.0
 21
0.0
 31
0.0
  0
MTEXT
  5
341
330
33D
100
AcDbEntity
  8
FORMAT
 62
     0
100
AcDbMText
 10
-25.0145898092
 20
4.6069467317
 30
0.0
 40
3.5
 41
0.0
 71
     1
 72
     1
  1
照明器具筐体
  7
SLDTEXTSTYLE0
 73
     1
 44
1.0
  0
ENDBLK
  5
33F
330
33D
100
AcDbEntity
  8
0
100
AcDbBlockEnd
  0
BLOCK
  5
347
330
346
100
AcDbEntity
  8
0
100
AcDbBlockBegin
  2
SW_NOTE_7
 70
     0
 10
0.0
 20
0.0
 30
0.0
  3
SW_NOTE_7
  1

  0
LINE
  5
349
330
346
100
AcDbEntity
  8
FORMAT
 62
     0
100
AcDbLine
 10
-2.036763425
 20
0.0
 30
0.0
 11
0.8173297392
 21
4.94343437
 31
0.0
  0
LINE
  5
34A
330
346
100
AcDbEntity
  8
FORMAT
 62
     0
100
AcDbLine
 10
0.8173297392
 20
4.94343437
 30
0.0
 11
3.6714229035
 21
0.0
 31
0.0
  0
LINE
  5
34B
330
346
100
AcDbEntity
  8
FORMAT
 62
     0
100
AcDbLine
 10
3.6714229035
 20
0.0
 30
0.0
 11
-2.036763425
 21
0.0
 31
0.0
  0
MTEXT
  5
34C
330
346
100
AcDbEntity
  8
FORMAT
 62
     0
100
AcDbMText
 10
0.0
 20
3.4106583948
 30
0.0
 40
2.6458333333
 41
0.0
 71
     1
 72
     1
  1
1
  7
SLDTEXTSTYLE0
 73
     1
 44
1.0
  0
ENDBLK
  5
348
330
346
100
AcDbEntity
  8
0
100
AcDbBlockEnd
  0
ENDSEC
  0
SECTION
  2
ENTITIES
  0
LINE
  5
78
330
1F
100
AcDbEntity
  8
0
  6
Continuous
 62
     7
370
    35
100
AcDbLine
 10
374.8999
 20
45.0
 30
0.0
 11
374.8999
 21
25.0
 31
0.0
  0
LINE
  5
79
330
1F
100
AcDbEntity
  8
0
  6
Continuous
 62
     7
370
    18
100
AcDbLine
 10
248.0
 20
5.0
 30
0.0
 11
248.0
 21
10.0
 31
0.0
  0
LINE
  5
7A
330
1F
100
AcDbEntity
  8
0
  6
Continuous
 62
     7
370
    18
100
AcDbLine
 10
313.0
 20
5.0
 30
0.0
 11
313.0
 21
10.0
 31
0.0
  0
LINE
  5
7B
330
1F
100
AcDbEntity
  8
0
  6
Continuous
 62
     7
370
    18
100
AcDbLine
 10
312.0
 20
5.0
 30
0.0
 11
312.0
 21
10.0
 31
0.0
  0
LINE
  5
7C
330
1F
100
AcDbEntity
  8
0
  6
Continuous
 62
     7
370
    18
100
AcDbLine
 10
311.0
 20
5.0
 30
0.0
 11
311.0
 21
10.0
 31
0.0
  0
LINE
  5
7D
330
1F
100
AcDbEntity
  8
0
  6
Continuous
 62
     7
370
    18
100
AcDbLine
 10
310.0
 20
5.0
 30
0.0
 11
310.0
 21
10.0
 31
0.0
  0
LINE
  5
7E
330
1F
100
AcDbEntity
  8
0
  6
Continuous
 62
     7
370
    18
100
AcDbLine
 10
309.0
 20
5.0
 30
0.0
 11
309.0
 21
10.0
 31
0.0
  0
LINE
  5
7F
330
1F
100
AcDbEntity
  8
0
  6
Continuous
 62
     7
370
    18
100
AcDbLine
 10
308.0
 20
5.0
 30
0.0
 11
308.0
 21
10.0
 31
0.0
  0
LINE
  5
80
330
1F
100
AcDbEntity
  8
0
  6
Continuous
 62
     7
370
    18
100
AcDbLine
 10
304.0
 20
5.0
 30
0.0
 11
304.0
 21
10.0
 31
0.0
  0
LINE
  5
81
330
1F
100
AcDbEntity
  8
0
  6
Continuous
 62
     7
370
    18
100
AcDbLine
 10
303.0
 20
5.0
 30
0.0
 11
303.0
 21
10.0
 31
0.0
  0
LINE
  5
82
330
1F
100
AcDbEntity
  8
0
  6
Continuous
 62
     7
370
    18
100
AcDbLine
 10
302.0
 20
5.0
 30
0.0
 11
302.0
 21
10.0
 31
0.0
  0
LINE
  5
83
330
1F
100
AcDbEntity
  8
0
  6
Continuous
 62
     7
370
    18
100
AcDbLine
 10
301.0
 20
5.0
 30
0.0
 11
301.0
 21
10.0
 31
0.0
  0
LINE
  5
84
330
1F
100
AcDbEntity
  8
0
  6
Continuous
 62
     7
370
    18
100
AcDbLine
 10
300.0
 20
5.0
 30
0.0
 11
300.0
 21
10.0
 31
0.0
  0
LINE
  5
85
330
1F
100
AcDbEntity
  8
0
  6
Continuous
 62
     7
370
    18
100
AcDbLine
 10
299.0
 20
5.0
 30
0.0
 11
299.0
 21
10.0
 31
0.0
  0
LINE
  5
86
330
1F
100
AcDbEntity
  8
0
  6
Continuous
 62
     7
370
    18
100
AcDbLine
 10
298.0
 20
5.0
 30
0.0
 11
298.0
 21
10.0
 31
0.0
  0
LINE
  5
87
330
1F
100
AcDbEntity
  8
0
  6
Continuous
 62
     7
370
    18
100
AcDbLine
 10
294.0
 20
5.0
 30
0.0
 11
294.0
 21
10.0
 31
0.0
  0
LINE
  5
88
330
1F
100
AcDbEntity
  8
0
  6
Continuous
 62
     7
370
    18
100
AcDbLine
 10
293.0
 20
5.0
 30
0.0
 11
293.0
 21
10.0
 31
0.0
  0
LINE
  5
89
330
1F
100
AcDbEntity
  8
0
  6
Continuous
 62
     7
370
    18
100
AcDbLine
 10
292.0
 20
5.0
 30
0.0
 11
292.0
 21
10.0
 31
0.0
  0
LINE
  5
8A
330
1F
100
AcDbEntity
  8
0
  6
Continuous
 62
     7
370
    18
100
AcDbLine
 10
291.0
 20
5.0
 30
0.0
 11
291.0
 21
10.0
 31
0.0
  0
LINE
  5
8B
330
1F
100
AcDbEntity
  8
0
  6
Continuous
 62
     7
370
    18
100
AcDbLine
 10
290.0
 20
5.0
 30
0.0
 11
290.0
 21
10.0
 31
0.0
  0
LINE
  5
8C
330
1F
100
AcDbEntity
  8
0
  6
Continuous
 62
     7
370
    18
100
AcDbLine
 10
289.0
 20
5.0
 30
0.0
 11
289.0
 21
10.0
 31
0.0
  0
LINE
  5
8D
330
1F
100
AcDbEntity
  8
0
  6
Continuous
 62
     7
370
    18
100
AcDbLine
 10
288.0
 20
5.0
 30
0.0
 11
288.0
 21
10.0
 31
0.0
  0
LINE
  5
8E
330
1F
100
AcDbEntity
  8
0
  6
Continuous
 62
     7
370
    18
100
AcDbLine
 10
284.0
 20
5.0
 30
0.0
 11
284.0
 21
10.0
 31
0.0
  0
LINE
  5
8F
330
1F
100
AcDbEntity
  8
0
  6
Continuous
 62
     7
370
    18
100
AcDbLine
 10
283.0
 20
5.0
 30
0.0
 11
283.0
 21
10.0
 31
0.0
  0
LINE
  5
90
330
1F
100
AcDbEntity
  8
0
  6
Continuous
 62
     7
370
    18
100
AcDbLine
 10
282.0
 20
5.0
 30
0.0
 11
282.0
 21
10.0
 31
0.0
  0
LINE
  5
91
330
1F
100
AcDbEntity
  8
0
  6
Continuous
 62
     7
370
    18
100
AcDbLine
 10
281.0
 20
5.0
 30
0.0
 11
281.0
 21
10.0
 31
0.0
  0
LINE
  5
92
330
1F
100
AcDbEntity
  8
0
  6
Continuous
 62
     7
370
    18
100
AcDbLine
 10
280.0
 20
5.0
 30
0.0
 11
280.0
 21
10.0
 31
0.0
  0
LINE
  5
93
330
1F
100
AcDbEntity
  8
0
  6
Continuous
 62
     7
370
    18
100
AcDbLine
 10
279.0
 20
5.0
 30
0.0
 11
279.0
 21
10.0
 31
0.0
  0
LINE
  5
94
330
1F
100
AcDbEntity
  8
0
  6
Continuous
 62
     7
370
    18
100
AcDbLine
 10
278.0
 20
5.0
 30
0.0
 11
278.0
 21
10.0
 31
0.0
  0
LINE
  5
95
330
1F
100
AcDbEntity
  8
0
  6
Continuous
 62
     7
370
    18
100
AcDbLine
 10
274.0
 20
5.0
 30
0.0
 11
274.0
 21
10.0
 31
0.0
  0
LINE
  5
96
330
1F
100
AcDbEntity
  8
0
  6
Continuous
 62
     7
370
    18
100
AcDbLine
 10
273.0
 20
5.0
 30
0.0
 11
273.0
 21
10.0
 31
0.0
  0
LINE
  5
97
330
1F
100
AcDbEntity
  8
0
  6
Continuous
 62
     7
370
    18
100
AcDbLine
 10
272.0
 20
5.0
 30
0.0
 11
272.0
 21
10.0
 31
0.0
  0
LINE
  5
98
330
1F
100
AcDbEntity
  8
0
  6
Continuous
 62
     7
370
    18
100
AcDbLine
 10
271.0
 20
5.0
 30
0.0
 11
271.0
 21
10.0
 31
0.0
  0
LINE
  5
99
330
1F
100
AcDbEntity
  8
0
  6
Continuous
 62
     7
370
    18
100
AcDbLine
 10
270.0
 20
5.0
 30
0.0
 11
270.0
 21
10.0
 31
0.0
  0
LINE
  5
9A
330
1F
100
AcDbEntity
  8
0
  6
Continuous
 62
     7
370
    18
100
AcDbLine
 10
269.0
 20
5.0
 30
0.0
 11
269.0
 21
10.0
 31
0.0
  0
LINE
  5
9B
330
1F
100
AcDbEntity
  8
0
  6
Continuous
 62
     7
370
    18
100
AcDbLine
 10
268.0
 20
5.0
 30
0.0
 11
268.0
 21
10.0
 31
0.0
  0
LINE
  5
9C
330
1F
100
AcDbEntity
  8
0
  6
Continuous
 62
     7
370
    18
100
AcDbLine
 10
264.0
 20
5.0
 30
0.0
 11
264.0
 21
10.0
 31
0.0
  0
LINE
  5
9D
330
1F
100
AcDbEntity
  8
0
  6
Continuous
 62
     7
370
    18
100
AcDbLine
 10
263.0
 20
5.0
 30
0.0
 11
263.0
 21
10.0
 31
0.0
  0
LINE
  5
9E
330
1F
100
AcDbEntity
  8
0
  6
Continuous
 62
     7
370
    18
100
AcDbLine
 10
262.0
 20
5.0
 30
0.0
 11
262.0
 21
10.0
 31
0.0
  0
LINE
  5
9F
330
1F
100
AcDbEntity
  8
0
  6
Continuous
 62
     7
370
    18
100
AcDbLine
 10
261.0
 20
5.0
 30
0.0
 11
261.0
 21
10.0
 31
0.0
  0
LINE
  5
A0
330
1F
100
AcDbEntity
  8
0
  6
Continuous
 62
     7
370
    18
100
AcDbLine
 10
260.0
 20
5.0
 30
0.0
 11
260.0
 21
10.0
 31
0.0
  0
LINE
  5
A1
330
1F
100
AcDbEntity
  8
0
  6
Continuous
 62
     7
370
    18
100
AcDbLine
 10
259.0
 20
5.0
 30
0.0
 11
259.0
 21
10.0
 31
0.0
  0
LINE
  5
A2
330
1F
100
AcDbEntity
  8
0
  6
Continuous
 62
     7
370
    18
100
AcDbLine
 10
258.0
 20
5.0
 30
0.0
 11
258.0
 21
10.0
 31
0.0
  0
LINE
  5
A3
330
1F
100
AcDbEntity
  8
0
  6
Continuous
 62
     7
370
    18
100
AcDbLine
 10
254.0
 20
5.0
 30
0.0
 11
254.0
 21
10.0
 31
0.0
  0
LINE
  5
A4
330
1F
100
AcDbEntity
  8
0
  6
Continuous
 62
     7
370
    18
100
AcDbLine
 10
253.0
 20
5.0
 30
0.0
 11
253.0
 21
10.0
 31
0.0
  0
LINE
  5
A5
330
1F
100
AcDbEntity
  8
0
  6
Continuous
 62
     7
370
    18
100
AcDbLine
 10
252.0
 20
5.0
 30
0.0
 11
252.0
 21
10.0
 31
0.0
  0
LINE
  5
A6
330
1F
100
AcDbEntity
  8
0
  6
Continuous
 62
     7
370
    18
100
AcDbLine
 10
251.0
 20
5.0
 30
0.0
 11
251.0
 21
10.0
 31
0.0
  0
LINE
  5
A7
330
1F
100
AcDbEntity
  8
0
  6
Continuous
 62
     7
370
    18
100
AcDbLine
 10
250.0
 20
5.0
 30
0.0
 11
250.0
 21
10.0
 31
0.0
  0
LINE
  5
A8
330
1F
100
AcDbEntity
  8
0
  6
Continuous
 62
     7
370
    18
100
AcDbLine
 10
249.0
 20
5.0
 30
0.0
 11
249.0
 21
10.0
 31
0.0
  0
LINE
  5
A9
330
1F
100
AcDbEntity
  8
0
  6
Continuous
 62
     7
370
    18
100
AcDbLine
 10
240.0
 20
5.0
 30
0.0
 11
240.0
 21
10.0
 31
0.0
  0
LINE
  5
AA
330
1F
100
AcDbEntity
  8
0
  6
Continuous
 62
     7
370
    18
100
AcDbLine
 10
239.0
 20
5.0
 30
0.0
 11
239.0
 21
10.0
 31
0.0
  0
LINE
  5
AB
330
1F
100
AcDbEntity
  8
0
  6
Continuous
 62
     7
370
    18
100
AcDbLine
 10
243.0
 20
5.0
 30
0.0
 11
243.0
 21
10.0
 31
0.0
  0
LINE
  5
AC
330
1F
100
AcDbEntity
  8
0
  6
Continuous
 62
     7
370
    18
100
AcDbLine
 10
242.0
 20
5.0
 30
0.0
 11
242.0
 21
10.0
 31
0.0
  0
LINE
  5
AD
330
1F
100
AcDbEntity
  8
0
  6
Continuous
 62
     7
370
    18
100
AcDbLine
 10
241.0
 20
5.0
 30
0.0
 11
241.0
 21
10.0
 31
0.0
  0
LINE
  5
AE
330
1F
100
AcDbEntity
  8
0
  6
Continuous
 62
     7
370
    18
100
AcDbLine
 10
314.0
 20
5.0
 30
0.0
 11
314.0
 21
10.0
 31
0.0
  0
LINE
  5
AF
330
1F
100
AcDbEntity
  8
0
  6
Continuous
 62
     7
370
    18
100
AcDbLine
 10
244.0
 20
5.0
 30
0.0
 11
244.0
 21
10.0
 31
0.0
  0
LINE
  5
B0
330
1F
100
AcDbEntity
  8
0
  6
Continuous
 62
     7
370
    18
100
AcDbLine
 10
307.0
 20
5.0
 30
0.0
 11
307.0
 21
10.0
 31
0.0
  0
LINE
  5
B1
330
1F
100
AcDbEntity
  8
0
  6
Continuous
 62
     7
370
    18
100
AcDbLine
 10
297.0
 20
5.0
 30
0.0
 11
297.0
 21
10.0
 31
0.0
  0
LINE
  5
B2
330
1F
100
AcDbEntity
  8
0
  6
Continuous
 62
     7
370
    18
100
AcDbLine
 10
287.0
 20
5.0
 30
0.0
 11
287.0
 21
10.0
 31
0.0
  0
LINE
  5
B3
330
1F
100
AcDbEntity
  8
0
  6
Continuous
 62
     7
370
    18
100
AcDbLine
 10
277.0
 20
5.0
 30
0.0
 11
277.0
 21
10.0
 31
0.0
  0
LINE
  5
B4
330
1F
100
AcDbEntity
  8
0
  6
Continuous
 62
     7
370
    18
100
AcDbLine
 10
267.0
 20
5.0
 30
0.0
 11
267.0
 21
10.0
 31
0.0
  0
LINE
  5
B5
330
1F
100
AcDbEntity
  8
0
  6
Continuous
 62
     7
370
    18
100
AcDbLine
 10
257.0
 20
5.0
 30
0.0
 11
257.0
 21
10.0
 31
0.0
  0
LINE
  5
B6
330
1F
100
AcDbEntity
  8
0
  6
Continuous
 62
     7
370
    18
100
AcDbLine
 10
247.0
 20
5.0
 30
0.0
 11
247.0
 21
10.0
 31
0.0
  0
LINE
  5
B7
330
1F
100
AcDbEntity
  8
0
  6
Continuous
 62
     7
370
    18
100
AcDbLine
 10
238.0
 20
5.0
 30
0.0
 11
238.0
 21
10.0
 31
0.0
  0
LINE
  5
B8
330
1F
100
AcDbEntity
  8
0
  6
Continuous
 62
     7
370
    18
100
AcDbLine
 10
237.0
 20
5.0
 30
0.0
 11
237.0
 21
10.0
 31
0.0
  0
LINE
  5
B9
330
1F
100
AcDbEntity
  8
0
  6
Continuous
 62
     7
370
    18
100
AcDbLine
 10
266.0
 20
5.0
 30
0.0
 11
266.0
 21
10.0
 31
0.0
  0
LINE
  5
BA
330
1F
100
AcDbEntity
  8
0
  6
Continuous
 62
     7
370
    18
100
AcDbLine
 10
256.0
 20
5.0
 30
0.0
 11
256.0
 21
10.0
 31
0.0
  0
LINE
  5
BB
330
1F
100
AcDbEntity
  8
0
  6
Continuous
 62
     7
370
    18
100
AcDbLine
 10
306.0
 20
5.0
 30
0.0
 11
306.0
 21
10.0
 31
0.0
  0
LINE
  5
BC
330
1F
100
AcDbEntity
  8
0
  6
Continuous
 62
     7
370
    18
100
AcDbLine
 10
296.0
 20
5.0
 30
0.0
 11
296.0
 21
10.0
 31
0.0
  0
LINE
  5
BD
330
1F
100
AcDbEntity
  8
0
  6
Continuous
 62
     7
370
    18
100
AcDbLine
 10
286.0
 20
5.0
 30
0.0
 11
286.0
 21
10.0
 31
0.0
  0
LINE
  5
BE
330
1F
100
AcDbEntity
  8
0
  6
Continuous
 62
     7
370
    18
100
AcDbLine
 10
276.0
 20
5.0
 30
0.0
 11
276.0
 21
10.0
 31
0.0
  0
LINE
  5
BF
330
1F
100
AcDbEntity
  8
0
  6
Continuous
 62
     7
370
    18
100
AcDbLine
 10
246.0
 20
5.0
 30
0.0
 11
246.0
 21
10.0
 31
0.0
  0
LINE
  5
C0
330
1F
100
AcDbEntity
  8
0
  6
Continuous
 62
     7
370
    18
100
AcDbLine
 10
236.0
 20
5.0
 30
0.0
 11
236.0
 21
10.0
 31
0.0
  0
LINE
  5
C1
330
1F
100
AcDbEntity
  8
0
  6
Continuous
 62
     7
370
    18
100
AcDbLine
 10
295.0
 20
5.0
 30
0.0
 11
295.0
 21
15.0
 31
0.0
  0
LINE
  5
C2
330
1F
100
AcDbEntity
  8
0
  6
Continuous
 62
     7
370
    18
100
AcDbLine
 10
265.0
 20
5.0
 30
0.0
 11
265.0
 21
15.0
 31
0.0
  0
LINE
  5
C3
330
1F
100
AcDbEntity
  8
0
  6
Continuous
 62
     7
370
    18
100
AcDbLine
 10
305.0
 20
5.0
 30
0.0
 11
305.0
 21
15.0
 31
0.0
  0
LINE
  5
C4
330
1F
100
AcDbEntity
  8
0
  6
Continuous
 62
     7
370
    18
100
AcDbLine
 10
285.0
 20
5.0
 30
0.0
 11
285.0
 21
15.0
 31
0.0
  0
LINE
  5
C5
330
1F
100
AcDbEntity
  8
0
  6
Continuous
 62
     7
370
    18
100
AcDbLine
 10
255.0
 20
5.0
 30
0.0
 11
255.0
 21
15.0
 31
0.0
  0
LINE
  5
C6
330
1F
100
AcDbEntity
  8
0
  6
Continuous
 62
     7
370
    18
100
AcDbLine
 10
245.0
 20
5.0
 30
0.0
 11
245.0
 21
15.0
 31
0.0
  0
LINE
  5
C7
330
1F
100
AcDbEntity
  8
0
  6
Continuous
 62
     7
370
    18
100
AcDbLine
 10
235.0
 20
5.0
 30
0.0
 11
235.0
 21
15.0
 31
0.0
  0
LINE
  5
C8
330
1F
100
AcDbEntity
  8
0
  6
Continuous
 62
     7
370
    18
100
AcDbLine
 10
315.0
 20
5.0
 30
0.0
 11
315.0
 21
15.0
 31
0.0
  0
LINE
  5
C9
330
1F
100
AcDbEntity
  8
0
  6
Continuous
 62
     7
370
    18
100
AcDbLine
 10
275.0
 20
5.0
 30
0.0
 11
275.0
 21
15.0
 31
0.0
  0
LINE
  5
CA
330
1F
100
AcDbEntity
  8
0
  6
Continuous
 62
     7
370
    18
100
AcDbLine
 10
0.099999964
 20
50.0
 30
0.0
 11
0.099999964
 21
0.099999964
 31
0.0
  0
LINE
  5
CB
330
1F
100
AcDbEntity
  8
0
  6
Continuous
 62
     7
370
    18
100
AcDbLine
 10
0.099999964
 20
0.099999964
 30
0.0
 11
50.0
 21
0.099999964
 31
0.0
  0
LINE
  5
CC
330
1F
100
AcDbEntity
  8
0
  6
Continuous
 62
     7
370
    18
100
AcDbLine
 10
0.099999964
 20
296.8999
 30
0.0
 11
0.099999964
 21
247.0
 31
0.0
  0
LINE
  5
CD
330
1F
100
AcDbEntity
  8
0
  6
Continuous
 62
     7
370
    18
100
AcDbLine
 10
0.099999964
 20
296.8999
 30
0.0
 11
50.0
 21
296.8999
 31
0.0
  0
LINE
  5
CE
330
1F
100
AcDbEntity
  8
0
  6
Continuous
 62
     7
370
    18
100
AcDbLine
 10
370.0
 20
296.8999
 30
0.0
 11
419.8999
 21
296.8999
 31
0.0
  0
LINE
  5
CF
330
1F
100
AcDbEntity
  8
0
  6
Continuous
 62
     7
370
    18
100
AcDbLine
 10
419.8999
 20
296.8999
 30
0.0
 11
419.8999
 21
247.0
 31
0.0
  0
LINE
  5
D0
330
1F
100
AcDbEntity
  8
0
  6
Continuous
 62
     7
370
    18
100
AcDbLine
 10
370.0
 20
0.099999964
 30
0.0
 11
419.8999
 21
0.099999964
 31
0.0
  0
LINE
  5
D1
330
1F
100
AcDbEntity
  8
0
  6
Continuous
 62
     7
370
    18
100
AcDbLine
 10
419.8999
 20
50.0
 30
0.0
 11
419.8999
 21
0.099999964
 31
0.0
  0
LINE
  5
D2
330
1F
100
AcDbEntity
  8
FORMAT
  6
Continuous
 62
     7
370
    18
100
AcDbLine
 10
49.8208984447
 20
40.0221803934
 30
0.0
 11
49.8208984447
 21
15.0221803934
 31
0.0
  0
LINE
  5
D3
330
1F
100
AcDbEntity
  8
0
  6
Continuous
 62
     7
370
    18
100
AcDbLine
 10
383.8999
 20
28.0
 30
0.0
 11
396.8999
 21
28.0
 31
0.0
  0
LINE
  5
D4
330
1F
100
AcDbEntity
  8
0
  6
HIDDEN
 62
     7
370
    18
100
AcDbLine
 10
210.0
 20
55.0
 30
0.0
 11
275.0
 21
55.0
 31
0.0
  0
LINE
  5
D5
330
1F
100
AcDbEntity
  8
FORMAT
  6
Continuous
 62
     7
370
    18
100
AcDbLine
 10
24.8208984447
 20
40.0221803934
 30
0.0
 11
24.8208984447
 21
15.0221803934
 31
0.0
  0
LINE
  5
D6
330
1F
100
AcDbEntity
  8
FORMAT
  6
Continuous
 62
     7
370
    18
100
AcDbLine
 10
130.3208984447
 20
40.0221803934
 30
0.0
 11
130.3208984447
 21
15.0221803934
 31
0.0
  0
LINE
  5
D7
330
1F
100
AcDbEntity
  8
0
  6
Continuous
 62
     7
370
    35
100
AcDbLine
 10
145.0
 20
15.0
 30
0.0
 11
145.0
 21
75.0
 31
0.0
  0
LINE
  5
D8
330
1F
100
AcDbEntity
  8
FORMAT
  6
Continuous
 62
     7
370
    18
100
AcDbLine
 10
102.8208984447
 20
40.0221803934
 30
0.0
 11
102.8208984447
 21
15.0221803934
 31
0.0
  0
LINE
  5
D9
330
1F
100
AcDbEntity
  8
FORMAT
  6
Continuous
 62
     7
370
    18
100
AcDbLine
 10
14.8208984447
 20
35.0221803934
 30
0.0
 11
144.8208984447
 21
35.0221803934
 31
0.0
  0
LINE
  5
DA
330
1F
100
AcDbEntity
  8
FORMAT
  6
Continuous
 62
     7
370
    18
100
AcDbLine
 10
14.8208984447
 20
30.0221803934
 30
0.0
 11
144.8208984447
 21
30.0221803934
 31
0.0
  0
LINE
  5
DB
330
1F
100
AcDbEntity
  8
FORMAT
  6
Continuous
 62
     7
370
    18
100
AcDbLine
 10
14.8208984447
 20
25.0221803934
 30
0.0
 11
144.8208984447
 21
25.0221803934
 31
0.0
  0
LINE
  5
DC
330
1F
100
AcDbEntity
  8
FORMAT
  6
Continuous
 62
     7
370
    18
100
AcDbLine
 10
14.8208984447
 20
20.0221803934
 30
0.0
 11
144.8208984447
 21
20.0221803934
 31
0.0
  0
LINE
  5
DD
330
1F
100
AcDbEntity
  8
FORMAT
  6
Continuous
 62
     7
370
    35
100
AcDbLine
 10
14.8208984447
 20
15.0221803934
 30
0.0
 11
144.8208984447
 21
15.0221803934
 31
0.0
  0
LINE
  5
DE
330
1F
100
AcDbEntity
  8
FORMAT
  6
Continuous
 62
     7
370
    50
100
AcDbLine
 10
14.8208984447
 20
40.0221803934
 30
0.0
 11
144.8208984447
 21
40.0221803934
 31
0.0
  0
LINE
  5
DF
330
1F
100
AcDbEntity
  8
0
  6
Continuous
 62
     7
370
    50
100
AcDbLine
 10
15.0
 20
282.0
 30
0.0
 11
15.0
 21
15.0
 31
0.0
  0
LINE
  5
E0
330
1F
100
AcDbEntity
  8
0
  6
HIDDEN
 62
     7
370
    18
100
AcDbLine
 10
210.0
 20
50.0
 30
0.0
 11
275.0
 21
50.0
 31
0.0
  0
LINE
  5
E1
330
1F
100
AcDbEntity
  8
0
  6
Continuous
 62
     7
370
    35
100
AcDbLine
 10
339.94995
 20
65.0
 30
0.0
 11
339.94995
 21
75.0
 31
0.0
  0
LINE
  5
E2
330
1F
100
AcDbEntity
  8
0
  6
Continuous
 62
     7
370
    50
100
AcDbLine
 10
145.0
 20
75.0
 30
0.0
 11
404.8999
 21
75.0
 31
0.0
  0
LINE
  5
E3
330
1F
100
AcDbEntity
  8
0
  6
Continuous
 62
     7
370
    35
100
AcDbLine
 10
210.0
 20
70.0
 30
0.0
 11
210.0
 21
45.0
 31
0.0
  0
LINE
  5
E4
330
1F
100
AcDbEntity
  8
0
  6
Continuous
 62
     7
370
    35
100
AcDbLine
 10
170.0
 20
35.0
 30
0.0
 11
170.0
 21
45.0
 31
0.0
  0
LINE
  5
E5
330
1F
100
AcDbEntity
  8
0
  6
Continuous
 62
     7
370
    35
100
AcDbLine
 10
205.0
 20
35.0
 30
0.0
 11
205.0
 21
45.0
 31
0.0
  0
LINE
  5
E6
330
1F
100
AcDbEntity
  8
0
  6
Continuous
 62
     7
370
    35
100
AcDbLine
 10
230.0
 20
35.0
 30
0.0
 11
230.0
 21
45.0
 31
0.0
  0
LINE
  5
E7
330
1F
100
AcDbEntity
  8
0
  6
Continuous
 62
     7
370
    35
100
AcDbLine
 10
245.0
 20
35.0
 30
0.0
 11
245.0
 21
45.0
 31
0.0
  0
LINE
  5
E8
330
1F
100
AcDbEntity
  8
0
  6
Continuous
 62
     7
370
    35
100
AcDbLine
 10
260.0
 20
35.0
 30
0.0
 11
260.0
 21
45.0
 31
0.0
  0
LINE
  5
E9
330
1F
100
AcDbEntity
  8
0
  6
Continuous
 62
     7
370
    18
100
AcDbLine
 10
175.0
 20
15.0
 30
0.0
 11
175.0
 21
35.0
 31
0.0
  0
LINE
  5
EA
330
1F
100
AcDbEntity
  8
0
  6
Continuous
 62
     7
370
    18
100
AcDbLine
 10
200.0
 20
15.0
 30
0.0
 11
200.0
 21
35.0
 31
0.0
  0
LINE
  5
EB
330
1F
100
AcDbEntity
  8
0
  6
Continuous
 62
     7
370
    18
100
AcDbLine
 10
225.0
 20
15.0
 30
0.0
 11
225.0
 21
35.0
 31
0.0
  0
LINE
  5
EC
330
1F
100
AcDbEntity
  8
0
  6
Continuous
 62
     7
370
    18
100
AcDbLine
 10
250.0
 20
15.0
 30
0.0
 11
250.0
 21
35.0
 31
0.0
  0
LINE
  5
ED
330
1F
100
AcDbEntity
  8
0
  6
Continuous
 62
     7
370
    35
100
AcDbLine
 10
145.0
 20
70.0
 30
0.0
 11
275.0
 21
70.0
 31
0.0
  0
LINE
  5
EE
330
1F
100
AcDbEntity
  8
0
  6
Continuous
 62
     7
370
    18
100
AcDbLine
 10
145.0
 20
65.0
 30
0.0
 11
275.0
 21
65.0
 31
0.0
  0
LINE
  5
EF
330
1F
100
AcDbEntity
  8
0
  6
Continuous
 62
     7
370
    35
100
AcDbLine
 10
145.0
 20
60.0
 30
0.0
 11
275.0
 21
60.0
 31
0.0
  0
LINE
  5
F0
330
1F
100
AcDbEntity
  8
0
  6
Continuous
 62
     7
370
    35
100
AcDbLine
 10
145.0
 20
55.0
 30
0.0
 11
210.0
 21
55.0
 31
0.0
  0
LINE
  5
F1
330
1F
100
AcDbEntity
  8
0
  6
Continuous
 62
     7
370
    35
100
AcDbLine
 10
145.0
 20
50.0
 30
0.0
 11
210.0
 21
50.0
 31
0.0
  0
LINE
  5
F2
330
1F
100
AcDbEntity
  8
0
  6
Continuous
 62
     7
370
    35
100
AcDbLine
 10
145.0
 20
45.0
 30
0.0
 11
275.0
 21
45.0
 31
0.0
  0
LINE
  5
F3
330
1F
100
AcDbEntity
  8
0
  6
Continuous
 62
     7
370
    18
100
AcDbLine
 10
145.0
 20
40.0
 30
0.0
 11
275.0
 21
40.0
 31
0.0
  0
LINE
  5
F4
330
1F
100
AcDbEntity
  8
0
  6
Continuous
 62
     7
370
    35
100
AcDbLine
 10
145.0
 20
35.0
 30
0.0
 11
275.0
 21
35.0
 31
0.0
  0
LINE
  5
F5
330
1F
100
AcDbEntity
  8
0
  6
Continuous
 62
     7
370
    35
100
AcDbLine
 10
145.0
 20
30.0
 30
0.0
 11
275.0
 21
30.0
 31
0.0
  0
LINE
  5
F6
330
1F
100
AcDbEntity
  8
0
  6
Continuous
 62
     7
370
    18
100
AcDbLine
 10
145.0
 20
20.0
 30
0.0
 11
275.0
 21
20.0
 31
0.0
  0
LINE
  5
F7
330
1F
100
AcDbEntity
  8
0
  6
HIDDEN
 62
     7
370
    35
100
AcDbLine
 10
290.46899
 20
55.0
 30
0.0
 11
404.8999
 21
55.0
 31
0.0
  0
LINE
  5
F8
330
1F
100
AcDbEntity
  8
0
  6
Continuous
 62
     7
370
    35
100
AcDbLine
 10
275.0
 20
45.0
 30
0.0
 11
404.8999
 21
45.0
 31
0.0
  0
LINE
  5
F9
330
1F
100
AcDbEntity
  8
0
  6
Continuous
 62
     7
370
    35
100
AcDbLine
 10
275.0
 20
25.0
 30
0.0
 11
404.8999
 21
25.0
 31
0.0
  0
LINE
  5
FA
330
1F
100
AcDbEntity
  8
0
  6
Continuous
 62
     7
370
    35
100
AcDbLine
 10
275.0
 20
65.0
 30
0.0
 11
404.8999
 21
65.0
 31
0.0
  0
LINE
  5
FB
330
1F
100
AcDbEntity
  8
0
  6
Continuous
 62
     7
370
    35
100
AcDbLine
 10
275.0
 20
35.0
 30
0.0
 11
404.8999
 21
35.0
 31
0.0
  0
LINE
  5
FC
330
1F
100
AcDbEntity
  8
0
  6
Continuous
 62
     7
370
    35
100
AcDbLine
 10
275.0
 20
15.0
 30
0.0
 11
275.0
 21
75.0
 31
0.0
  0
LINE
  5
FD
330
1F
100
AcDbEntity
  8
0
  6
Continuous
 62
     7
370
    50
100
AcDbLine
 10
15.0
 20
282.0
 30
0.0
 11
404.8999
 21
282.0
 31
0.0
  0
LINE
  5
FE
330
1F
100
AcDbEntity
  8
0
  6
Continuous
 62
     7
370
    50
100
AcDbLine
 10
404.8999
 20
282.0
 30
0.0
 11
404.8999
 21
15.0
 31
0.0
  0
LINE
  5
FF
330
1F
100
AcDbEntity
  8
0
  6
Continuous
 62
     7
370
    50
100
AcDbLine
 10
15.0
 20
15.0
 30
0.0
 11
404.8999
 21
15.0
 31
0.0
  0
MTEXT
  5
101
330
1F
100
AcDbEntity
  8
FORMAT
100
AcDbMText
 10
216.8362642528
 20
83.9456608276
 30
0.0
 40
4.2333333333
 41
0.0
 71
     1
 72
     1
  1
※コネクタ寸法は、2～5極まで同一寸法です。
  7
SLDTEXTSTYLE0
 73
     1
 44
1.0
  0
MTEXT
  5
102
330
1F
100
AcDbEntity
  8
FORMAT
100
AcDbMText
 10
216.8362642528
 20
90.4611372993
 30
0.0
 40
4.2333333333
 41
0.0
 71
     1
 72
     1
  1
※コネクタ色は、電源用：黒　制御及び複合用：灰　となります。
  7
SLDTEXTSTYLE0
 73
     1
 44
1.0
  0
MTEXT
  5
104
330
1F
100
AcDbEntity
  8
0
  6
Continuous
 62
     7
370
     0
100
AcDbMText
 10
375.4912702375
 20
33.9493166522
 30
0.0
 40
2.6000004
 41
0.0
 71
     1
 72
     1
  1
SET DWG NO.
  7
SLDTEXTSTYLE1
 73
     1
 44
1.0
  0
MTEXT
  5
106
330
1F
100
AcDbEntity
  8
0
  6
Continuous
 62
     7
370
     0
100
AcDbMText
 10
276.47336
 20
39.1785177399
 30
0.0
 40
2.7999992
 41
0.0
 71
     1
 72
     1
  1
CH. CODE
  7
SLDTEXTSTYLE2
 73
     1
 44
1.0
  0
MTEXT
  5
108
330
1F
100
AcDbEntity
  8
0
  6
Continuous
 62
     7
370
     0
100
AcDbMText
 10
276.38037
 20
44.1004537399
 30
0.0
 40
2.7999992
 41
0.0
 71
     1
 72
     1
  1
PART NO.
  7
SLDTEXTSTYLE3
 73
     1
 44
1.0
  0
MTEXT
  5
10A
330
1F
100
AcDbEntity
  8
0
  6
Continuous
 62
     7
370
     0
100
AcDbMText
 10
267.06445
 20
39.1690916888
 30
0.0
 40
3.0819824219
 41
0.0
 71
     1
 72
     1
  1
3
  7
SLDTEXTSTYLE4
 73
     1
 44
1.0
  0
MTEXT
  5
10B
330
1F
100
AcDbEntity
  8
0
  6
Continuous
 62
     7
370
     0
100
AcDbMText
 10
318.04688
 20
14.4453388795
 30
0.0
 40
5.0
 41
0.0
 71
     1
 72
     1
  1
3
  7
SLDTEXTSTYLE0
 73
     1
 44
1.0
  0
MTEXT
  5
10C
330
1F
100
AcDbEntity
  8
0
  6
Continuous
 62
     7
370
     0
100
AcDbMText
 10
218.04688
 20
14.4453388795
 30
0.0
 40
5.0
 41
0.0
 71
     1
 72
     1
  1
2
  7
SLDTEXTSTYLE0
 73
     1
 44
1.0
  0
MTEXT
  5
10E
330
1F
100
AcDbEntity
  8
0
  6
Continuous
 62
     7
370
     0
100
AcDbMText
 10
118.04688
 20
14.4453388795
 30
0.0
 40
5.0
 41
0.0
 71
     1
 72
     1
  1
1
  7
SLDTEXTSTYLE5
 73
     1
 44
1.0
  0
MTEXT
  5
10F
330
1F
100
AcDbEntity
  8
0
  6
Continuous
 62
     7
370
     0
100
AcDbMText
 10
405.44678
 20
112.9453388795
 30
0.0
 40
5.0
 41
0.0
 71
     1
 72
     1
  1
A
  7
SLDTEXTSTYLE0
 73
     1
 44
1.0
  0
MTEXT
  5
110
330
1F
100
AcDbEntity
  8
0
  6
Continuous
 62
     7
370
     0
100
AcDbMText
 10
405.44678
 20
212.9453388795
 30
0.0
 40
5.0
 41
0.0
 71
     1
 72
     1
  1
B
  7
SLDTEXTSTYLE0
 73
     1
 44
1.0
  0
MTEXT
  5
111
330
1F
100
AcDbEntity
  8
0
  6
Continuous
 62
     7
370
     0
100
AcDbMText
 10
318.04688
 20
288.4453388795
 30
0.0
 40
5.0
 41
0.0
 71
     1
 72
     1
  1
3
  7
SLDTEXTSTYLE0
 73
     1
 44
1.0
  0
MTEXT
  5
112
330
1F
100
AcDbEntity
  8
0
  6
Continuous
 62
     7
370
     0
100
AcDbMText
 10
218.04688
 20
288.4453388795
 30
0.0
 40
5.0
 41
0.0
 71
     1
 72
     1
  1
2
  7
SLDTEXTSTYLE0
 73
     1
 44
1.0
  0
MTEXT
  5
113
330
1F
100
AcDbEntity
  8
0
  6
Continuous
 62
     7
370
     0
100
AcDbMText
 10
118.04688
 20
288.4453388795
 30
0.0
 40
5.0
 41
0.0
 71
     1
 72
     1
  1
1
  7
SLDTEXTSTYLE5
 73
     1
 44
1.0
  0
MTEXT
  5
114
330
1F
100
AcDbEntity
  8
0
  6
Continuous
 62
     7
370
     0
100
AcDbMText
 10
10.546875
 20
212.9453388795
 30
0.0
 40
5.0
 41
0.0
 71
     1
 72
     1
  1
B
  7
SLDTEXTSTYLE0
 73
     1
 44
1.0
  0
MTEXT
  5
115
330
1F
100
AcDbEntity
  8
0
  6
Continuous
 62
     7
370
     0
100
AcDbMText
 10
10.546875
 20
112.9453388795
 30
0.0
 40
5.0
 41
0.0
 71
     1
 72
     1
  1
A
  7
SLDTEXTSTYLE0
 73
     1
 44
1.0
  0
MTEXT
  5
117
330
1F
100
AcDbEntity
  8
0
  6
Continuous
 62
     7
370
     0
100
AcDbMText
 10
211.40288
 20
59.2414134143
 30
0.0
 40
3.199995
 41
0.0
 71
     1
 72
     1
  1
TRIAL PART NO.
  7
SLDTEXTSTYLE6
 73
     1
 44
1.0
  0
MTEXT
  5
119
330
1F
100
AcDbEntity
  8
0
  6
Continuous
 62
     7
370
     0
100
AcDbMText
 10
276.22412
 20
34.3027534143
 30
0.0
 40
3.199995
 41
0.0
 71
     1
 72
     1
  1
DWG NO.
  7
SLDTEXTSTYLE7
 73
     1
 44
1.0
  0
MTEXT
  5
11B
330
1F
100
AcDbEntity
  8
0
  6
Continuous
 62
     7
370
     0
100
AcDbMText
 10
276.22412
 20
63.0649764143
 30
0.0
 40
3.199995
 41
0.0
 71
     1
 72
     1
  1
NAME
  7
SLDTEXTSTYLE8
 73
     1
 44
1.0
  0
MTEXT
  5
11D
330
1F
100
AcDbEntity
  8
0
  6
Continuous
 62
     7
370
     0
100
AcDbMText
 10
340.89746
 20
74.5688674143
 30
0.0
 40
3.199995
 41
0.0
 71
     1
 72
     1
  1
TREAT.
  7
SLDTEXTSTYLE9
 73
     1
 44
1.0
  0
MTEXT
  5
11F
330
1F
100
AcDbEntity
  8
0
  6
Continuous
 62
     7
370
     0
100
AcDbMText
 10
340.89746
 20
69.7688734143
 30
0.0
 40
3.199995
 41
0.0
 71
     1
 72
     1
  1
& FIN.
  7
SLDTEXTSTYLE10
 73
     1
 44
1.0
  0
MTEXT
  5
121
330
1F
100
AcDbEntity
  8
0
  6
Continuous
 62
     7
370
     0
100
AcDbMText
 10
276.05688
 20
74.7688794143
 30
0.0
 40
3.199995
 41
0.0
 71
     1
 72
     1
  1
MATL.
  7
SLDTEXTSTYLE11
 73
     1
 44
1.0
  0
MTEXT
  5
122
330
1F
100
AcDbEntity
  8
0
  6
Continuous
 62
     7
370
     0
100
AcDbMText
 10
276.05688
 20
69.9688854143
 30
0.0
 40
3.199995
 41
0.0
 71
     1
 72
     1
  1
SPEC.
  7
SLDTEXTSTYLE11
 73
     1
 44
1.0
  0
MTEXT
  5
124
330
1F
100
AcDbEntity
  8
0
  6
Continuous
 62
     7
370
     0
100
AcDbMText
 10
254.31299
 20
34.3454474143
 30
0.0
 40
3.199995
 41
0.0
 71
     1
 72
     1
  1
DRAWN
  7
SLDTEXTSTYLE12
 73
     1
 44
1.0
  0
MTEXT
  5
126
330
1F
100
AcDbEntity
  8
0
  6
Continuous
 62
     7
370
     0
100
AcDbMText
 10
229.41702
 20
34.3454474143
 30
0.0
 40
3.199995
 41
0.0
 71
     1
 72
     1
  1
DESIGN
  7
SLDTEXTSTYLE13
 73
     1
 44
1.0
  0
MTEXT
  5
128
330
1F
100
AcDbEntity
  8
0
  6
Continuous
 62
     7
370
     0
100
AcDbMText
 10
260.89722
 20
44.2633554143
 30
0.0
 40
3.199995
 41
0.0
 71
     1
 72
     1
  1
ANGLE
  7
SLDTEXTSTYLE14
 73
     1
 44
1.0
  0
MTEXT
  5
12A
330
1F
100
AcDbEntity
  8
0
  6
Continuous
 62
     7
370
     0
100
AcDbMText
 10
249.25284
 20
44.2633554143
 30
0.0
 40
3.199995
 41
0.0
 71
     1
 72
     1
  1
SCL
  7
SLDTEXTSTYLE15
 73
     1
 44
1.0
  0
MTEXT
  5
12C
330
1F
100
AcDbEntity
  8
0
  6
Continuous
 62
     7
370
     0
100
AcDbMText
 10
231.44109
 20
44.2633554143
 30
0.0
 40
3.199995
 41
0.0
 71
     1
 72
     1
  1
UNIT
  7
SLDTEXTSTYLE16
 73
     1
 44
1.0
  0
MTEXT
  5
12E
330
1F
100
AcDbEntity
  8
0
  6
Continuous
 62
     7
370
     0
100
AcDbMText
 10
211.40288
 20
69.3617294143
 30
0.0
 40
3.199995
 41
0.0
 71
     1
 72
     1
  1
CUSTOMER DWG NO.
  7
SLDTEXTSTYLE17
 73
     1
 44
1.0
  0
MTEXT
  5
130
330
1F
100
AcDbEntity
  8
0
  6
Continuous
 62
     7
370
     0
100
AcDbMText
 10
206.54512
 20
44.2633554143
 30
0.0
 40
3.199995
 41
0.0
 71
     1
 72
     1
  1
DWG DATE
  7
SLDTEXTSTYLE18
 73
     1
 44
1.0
  0
MTEXT
  5
132
330
1F
100
AcDbEntity
  8
0
  6
Continuous
 62
     7
370
     0
100
AcDbMText
 10
202.48497
 20
34.3454474143
 30
0.0
 40
3.199995
 41
0.0
 71
     1
 72
     1
  1
CHECKED
  7
SLDTEXTSTYLE19
 73
     1
 44
1.0
  0
MTEXT
  5
133
330
1F
100
AcDbEntity
  8
0
  6
Continuous
 62
     7
370
     0
100
AcDbMText
 10
177.38661
 20
34.3454474143
 30
0.0
 40
3.199995
 41
0.0
 71
     1
 72
     1
  1
CHECKED
  7
SLDTEXTSTYLE19
 73
     1
 44
1.0
  0
MTEXT
  5
135
330
1F
100
AcDbEntity
  8
0
  6
Continuous
 62
     7
370
     0
100
AcDbMText
 10
174.36255
 20
44.2633554143
 30
0.0
 40
3.199995
 41
0.0
 71
     1
 72
     1
  1
DWG SOURCE
  7
SLDTEXTSTYLE20
 73
     1
 44
1.0
  0
MTEXT
  5
137
330
1F
100
AcDbEntity
  8
0
  6
Continuous
 62
     7
370
     0
100
AcDbMText
 10
149.26418
 20
34.3454474143
 30
0.0
 40
3.199995
 41
0.0
 71
     1
 72
     1
  1
APPROVED
  7
SLDTEXTSTYLE21
 73
     1
 44
1.0
  0
MTEXT
  5
138
330
1F
100
AcDbEntity
  8
0
  6
Continuous
 62
     7
370
     0
100
AcDbMText
 10
147.24011
 20
44.2633554143
 30
0.0
 40
3.199995
 41
0.0
 71
     1
 72
     1
  1
DWG TYPE
  7
SLDTEXTSTYLE18
 73
     1
 44
1.0
  0
MTEXT
  5
13A
330
1F
100
AcDbEntity
  8
0
  6
Continuous
 62
     7
370
     0
100
AcDbMText
 10
146.4305
 20
49.3235054143
 30
0.0
 40
3.199995
 41
0.0
 71
     1
 72
     1
  1
VENDOR NO.
  7
SLDTEXTSTYLE22
 73
     1
 44
1.0
  0
MTEXT
  5
13C
330
1F
100
AcDbEntity
  8
0
  6
Continuous
 62
     7
370
     0
100
AcDbMText
 10
146.4305
 20
54.3836714143
 30
0.0
 40
3.199995
 41
0.0
 71
     1
 72
     1
  1
VENDOR
  7
SLDTEXTSTYLE23
 73
     1
 44
1.0
  0
MTEXT
  5
13D
330
1F
100
AcDbEntity
  8
0
  6
Continuous
 62
     7
370
     0
100
AcDbMText
 10
146.4305
 20
59.2414134143
 30
0.0
 40
3.199995
 41
0.0
 71
     1
 72
     1
  1
OFFICE
  7
SLDTEXTSTYLE13
 73
     1
 44
1.0
  0
MTEXT
  5
13F
330
1F
100
AcDbEntity
  8
0
  6
Continuous
 62
     7
370
     0
100
AcDbMText
 10
146.4305
 20
69.3617294143
 30
0.0
 40
3.199995
 41
0.0
 71
     1
 72
     1
  1
CUSTOMER PART NO.
  7
SLDTEXTSTYLE24
 73
     1
 44
1.0
  0
MTEXT
  5
141
330
1F
100
AcDbEntity
  8
0
  6
Continuous
 62
     7
370
     0
100
AcDbMText
 10
146.4305
 20
74.2194864143
 30
0.0
 40
3.199995
 41
0.0
 71
     1
 72
     1
  1
CUSTOMER
  7
SLDTEXTSTYLE25
 73
     1
 44
1.0
  0
MTEXT
  5
142
330
1F
100
AcDbEntity
  8
0
  6
Continuous
 62
     7
370
     0
100
AcDbMText
 10
299.227658137
 20
43.2916858487
 30
0.0
 40
4.7625
 41
0.0
 71
     1
 72
     1
  1
-
  7
SLDTEXTSTYLE0
 73
     1
 44
1.0
  0
MTEXT
  5
143
330
1F
100
AcDbEntity
  8
0
  6
Continuous
 62
     7
370
     0
100
AcDbMText
 10
249.5068390142
 20
39.3843808466
 30
0.0
 40
3.175
 41
0.0
 71
     1
 72
     1
  1
1:1
  7
SLDTEXTSTYLE4
 73
     1
 44
1.0
  0
MTEXT
  5
144
330
1F
100
AcDbEntity
  8
0
  6
Continuous
 62
     7
370
     0
100
AcDbMText
 10
232.9907856572
 20
39.4785758094
 30
0.0
 40
3.175
 41
0.0
 71
     1
 72
     1
  1
ｍｍ
  7
SLDTEXTSTYLE0
 73
     1
 44
1.0
  0
MTEXT
  5
145
330
1F
100
AcDbEntity
  8
0
  6
Continuous
 62
     7
370
     0
100
AcDbMText
 10
181.9568909487
 20
39.2365913784
 30
0.0
 40
3.175
 41
0.0
 71
     1
 72
     1
  1
NEW
  7
SLDTEXTSTYLE4
 73
     1
 44
1.0
  0
MTEXT
  5
146
330
1F
100
AcDbEntity
  8
0
  6
Continuous
 62
     7
370
     0
100
AcDbMText
 10
208.1992330875
 20
39.4785759258
 30
0.0
 40
3.175
 41
0.0
 71
     1
 72
     1
  1
2020.2.20
  7
SLDTEXTSTYLE0
 73
     1
 44
1.0
  0
MTEXT
  5
147
330
1F
100
AcDbEntity
  8
0
  6
Continuous
 62
     7
370
     0
100
AcDbMText
 10
156.9824762728
 20
39.2623320795
 30
0.0
 40
3.175
 41
0.0
 71
     1
 72
     1
  1
R
  7
SLDTEXTSTYLE0
 73
     1
 44
1.0
  0
MTEXT
  5
148
330
1F
100
AcDbEntity
  8
0
  6
Continuous
 62
     7
370
     0
100
AcDbMText
 10
229.5791610766
 20
26.7706336468
 30
0.0
 40
2.9104166667
 41
0.0
 71
     1
 72
     1
  1
W.IIZUKA
  7
SLDTEXTSTYLE0
 73
     1
 44
1.0
  0
MTEXT
  5
149
330
1F
100
AcDbEntity
  8
0
  6
Continuous
 62
     7
370
     0
100
AcDbMText
 10
253.0972007309
 20
19.5472190798
 30
0.0
 40
3.175
 41
0.0
 71
     1
 72
     1
  1
2020.2.20
  7
SLDTEXTSTYLE0
 73
     1
 44
1.0
  0
MTEXT
  5
14A
330
1F
100
AcDbEntity
  8
0
  6
Continuous
 62
     7
370
     0
100
AcDbMText
 10
251.9367392753
 20
26.7706336468
 30
0.0
 40
2.9104166667
 41
0.0
 71
     1
 72
     1
  1
Y.KOBAYASHI
  7
SLDTEXTSTYLE0
 73
     1
 44
1.0
  0
MTEXT
  5
14B
330
1F
100
AcDbEntity
  8
0
  6
Continuous
 62
     7
370
     0
100
AcDbMText
 10
299.1431374184
 20
32.8773898714
 30
0.0
 40
4.7625
 41
0.0
 71
     1
 72
     1
  1
YDR79020006:R
  7
SLDTEXTSTYLE0
 73
     1
 44
1.0
  0
MTEXT
  5
14C
330
1F
100
AcDbEntity
  8
0
  6
Continuous
 62
     7
370
     0
100
AcDbMText
 10
299.1431374184
 20
71.9166447398
 30
0.0
 40
3.175
 41
0.0
 71
     1
 72
     1
  1
-
  7
SLDTEXTSTYLE0
 73
     1
 44
1.0
  0
MTEXT
  5
14D
330
1F
100
AcDbEntity
  8
0
  6
Continuous
 62
     7
370
     0
100
AcDbMText
 10
366.2698338047
 20
71.9166448562
 30
0.0
 40
3.175
 41
0.0
 71
     1
 72
     1
  1
-
  7
SLDTEXTSTYLE0
 73
     1
 44
1.0
  0
MTEXT
  5
14E
330
1F
100
AcDbEntity
  8
0
  6
Continuous
 62
     7
370
     0
100
AcDbMText
 10
150.9462072875
 20
26.7706336468
 30
0.0
 40
2.9104166667
 41
0.0
 71
     1
 72
     1
  1
K.TAZAWA
  7
SLDTEXTSTYLE0
 73
     1
 44
1.0
  0
MTEXT
  5
150
330
1F
100
AcDbEntity
  8
0
  6
Continuous
 62
     7
370
     0
100
AcDbMText
 10
284.98438
 20
22.9453388795
 30
0.0
 40
5.0
 41
0.0
 71
     1
 72
     1
  1
YAZAKI Energy System Corporation
  7
SLDTEXTSTYLE26
 73
     1
 44
1.0
  0
MTEXT
  5
152
330
1F
100
AcDbEntity
  8
0
  6
Continuous
 62
     7
370
     0
100
AcDbMText
 10
375.5809958965
 20
43.8754193167
 30
0.0
 40
2.6000004
 41
0.0
 71
     1
 72
     1
  1
SHEET
  7
SLDTEXTSTYLE27
 73
     1
 44
1.0
  0
MTEXT
  5
153
330
1F
100
AcDbEntity
  8
0
  6
Continuous
 62
     7
370
     0
100
AcDbMText
 10
386.3423960176
 20
39.9950967188
 30
0.0
 40
3.5
 41
0.0
 71
     1
 72
     1
  1
1/1
  7
SLDTEXTSTYLE0
 73
     1
 44
1.0
  0
MTEXT
  5
154
330
1F
100
AcDbEntity
  8
FORMAT
100
AcDbMText
 10
404.8999
 20
15.1562711291
 30
0.0
 40
4.0
 41
0.0
 71
     1
 72
     1
  1
A3
  7
SLDTEXTSTYLE0
 73
     1
 44
1.0
  0
MTEXT
  5
155
330
1F
100
AcDbEntity
  8
FORMAT
100
AcDbMText
 10
179.8121558266
 20
26.7706336468
 30
0.0
 40
2.9104166667
 41
0.0
 71
     1
 72
     1
  1
T.SATOU
  7
SLDTEXTSTYLE0
 73
     1
 44
1.0
  0
MTEXT
  5
156
330
1F
100
AcDbEntity
  8
0
  6
Continuous
 62
     7
370
     0
100
AcDbMText
 10
290.1534386258
 20
62.0980510445
 30
0.0
 40
3.7041666667
 41
0.0
 71
     1
 72
     1
  1
EGy防水コネクタ 器具取付 嵌合図
  7
SLDTEXTSTYLE0
 73
     1
 44
1.0
  0
MTEXT
  5
157
330
1F
100
AcDbEntity
  8
FORMAT
100
AcDbMText
 10
227.808994862
 20
19.4765462527
 30
0.0
 40
3.175
 41
0.0
 71
     1
 72
     1
  1
2020.2.20
  7
SLDTEXTSTYLE0
 73
     1
 44
1.0
  0
MTEXT
  5
158
330
1F
100
AcDbEntity
  8
FORMAT
100
AcDbMText
 10
177.5410212021
 20
19.4765462527
 30
0.0
 40
3.175
 41
0.0
 71
     1
 72
     1
  1
2020.2.20
  7
SLDTEXTSTYLE0
 73
     1
 44
1.0
  0
MTEXT
  5
159
330
1F
100
AcDbEntity
  8
FORMAT
100
AcDbMText
 10
149.0071510516
 20
19.4765462527
 30
0.0
 40
3.175
 41
0.0
 71
     1
 72
     1
  1
2020.2.20
  7
SLDTEXTSTYLE0
 73
     1
 44
1.0
  0
MTEXT
  5
15A
330
1F
100
AcDbEntity
  8
FORMAT
100
AcDbMText
 10
133.6521095384
 20
19.8359382144
 30
0.0
 40
3.199995
 41
0.0
 71
     1
 72
     1
  1
CHKD
  7
SLDTEXTSTYLE8
 73
     1
 44
1.0
  0
MTEXT
  5
15C
330
1F
100
AcDbEntity
  8
FORMAT
100
AcDbMText
 10
114.5052006421
 20
19.8359382144
 30
0.0
 40
3.199995
 41
0.0
 71
     1
 72
     1
  1
NO.
  7
SLDTEXTSTYLE28
 73
     1
 44
1.0
  0
MTEXT
  5
15E
330
1F
100
AcDbEntity
  8
FORMAT
100
AcDbMText
 10
61.7494179401
 20
19.9147477839
 30
0.0
 40
3.199995
 41
0.0
 71
     1
 72
     1
  1
REVISION RECORD
  7
SLDTEXTSTYLE29
 73
     1
 44
1.0
  0
MTEXT
  5
15F
330
1F
100
AcDbEntity
  8
FORMAT
100
AcDbMText
 10
32.3554276801
 20
19.5852502139
 30
0.0
 40
3.199995
 41
0.0
 71
     1
 72
     1
  1
DATE
  7
SLDTEXTSTYLE8
 73
     1
 44
1.0
  0
MTEXT
  5
160
330
1F
100
AcDbEntity
  8
FORMAT
100
AcDbMText
 10
16.7701466801
 20
19.5852502139
 30
0.0
 40
3.199995
 41
0.0
 71
     1
 72
     1
  1
LET
  7
SLDTEXTSTYLE15
 73
     1
 44
1.0
  0
INSERT
  5
168
330
1F
100
AcDbEntity
  8
FORMAT
100
AcDbBlockReference
  2
SW_NOTE_0
 10
19.3188431595
 20
25.6566878125
 30
0.0
  0
INSERT
  5
170
330
1F
100
AcDbEntity
  8
FORMAT
100
AcDbBlockReference
  2
SW_NOTE_1
 10
19.3188431595
 20
20.4883713435
 30
0.0
  0
MTEXT
  5
171
330
1F
100
AcDbEntity
  8
FORMAT
100
AcDbMText
 10
73.5277269703
 20
24.3832139263
 30
0.0
 40
3.175
 41
0.0
 71
     1
 72
     1
  1
NEW
  7
SLDTEXTSTYLE0
 73
     1
 44
1.0
  0
MTEXT
  5
172
330
1F
100
AcDbEntity
  8
FORMAT
100
AcDbMText
 10
27.7693385258
 20
24.3832138099
 30
0.0
 40
3.175
 41
0.0
 71
     1
 72
     1
  1
2020.2.20
  7
SLDTEXTSTYLE0
 73
     1
 44
1.0
  0
INSERT
  5
17A
330
1F
100
AcDbEntity
  8
FORMAT
100
AcDbBlockReference
  2
SW_NOTE_2
 10
19.3193449884
 20
35.7098713969
 30
0.0
  0
INSERT
  5
182
330
1F
100
AcDbEntity
  8
FORMAT
100
AcDbBlockReference
  2
SW_NOTE_3
 10
19.3193449884
 20
30.6098713969
 30
0.0
  0
MTEXT
  5
183
330
1F
100
AcDbEntity
  8
FORMAT
100
AcDbMText
 10
211.7524131863
 20
26.7706336468
 30
0.0
 40
2.9104166667
 41
0.0
 71
     1
 72
     1
  1
-
  7
SLDTEXTSTYLE0
 73
     1
 44
1.0
  0
MTEXT
  5
184
330
1F
100
AcDbEntity
  8
FORMAT
100
AcDbMText
 10
27.828502655
 20
29.2371223527
 30
0.0
 40
3.175
 41
0.0
 71
     1
 72
     1
  1
2020.5.13
  7
SLDTEXTSTYLE0
 73
     1
 44
1.0
  0
MTEXT
  5
185
330
1F
100
AcDbEntity
  8
FORMAT
100
AcDbMText
 10
62.3138027001
 20
29.2371223527
 30
0.0
 40
3.175
 41
0.0
 71
     1
 72
     1
  1
レイアウト変更等
  7
SLDTEXTSTYLE0
 73
     1
 44
1.0
  0
MTEXT
  5
186
330
1F
100
AcDbEntity
  8
FORMAT
100
AcDbMText
 10
115.7521225109
 20
29.6303434449
 30
0.0
 40
3.199995
 41
0.0
 71
     1
 72
     1
  1
1
  7
SLDTEXTSTYLE28
 73
     1
 44
1.0
  0
MTEXT
  5
187
330
1F
100
AcDbEntity
  8
FORMAT
100
AcDbMText
 10
134.7314416219
 20
29.6303434449
 30
0.0
 40
3.199995
 41
0.0
 71
     1
 72
     1
  1
Y.K
  7
SLDTEXTSTYLE8
 73
     1
 44
1.0
  0
INSERT
  5
1A9
330
1F
100
AcDbEntity
  8
FORMAT
100
AcDbBlockReference
  2
SW_TABLEANNOTATION_0
 10
176.963198717
 20
282.0
 30
0.0
  0
LINE
  5
1AA
330
1F
100
AcDbEntity
  8
0
  6
Continuous
 62
     7
370
    25
100
AcDbLine
 10
227.9898443126
 20
152.0973899141
 30
0.0
 11
236.8881211483
 21
152.0973899141
 31
0.0
  0
LINE
  5
1AB
330
1F
100
AcDbEntity
  8
0
  6
Continuous
 62
     7
370
    25
100
AcDbLine
 10
236.8881211483
 20
186.0973917619
 30
0.0
 11
227.9898443126
 21
186.0973917619
 31
0.0
  0
ARC
  5
1AC
330
1F
100
AcDbEntity
  8
0
  6
Continuous
 62
     7
370
    25
100
AcDbCircle
 10
236.8881167076
 20
175.597390661
 30
0.0
 40
23.50000074685363
100
AcDbArc
 50
270.0000108269
 51
290.9315536711
  0
ARC
  5
1AD
330
1F
100
AcDbEntity
  8
0
  6
Continuous
 62
     7
370
    25
100
AcDbCircle
 10
236.8881167076
 20
162.597391015
 30
0.0
 40
23.50000074685365
100
AcDbArc
 50
69.0684463289
 51
89.9999891731
  0
ARC
  5
1AE
330
1F
100
AcDbEntity
  8
0
  6
Continuous
 62
     7
370
    25
100
AcDbCircle
 10
277.4898381744
 20
69.4474159628
 30
0.0
 40
90.14997467984666
100
AcDbArc
 50
90.6285969434
 51
110.9315482455
  0
ARC
  5
1AF
330
1F
100
AcDbEntity
  8
0
  6
Continuous
 62
     7
370
    25
100
AcDbCircle
 10
277.4898381744
 20
268.7473657132
 30
0.0
 40
90.14997467984666
100
AcDbArc
 50
249.0684517545
 51
269.3714030566
  0
ARC
  5
1B0
330
1F
100
AcDbEntity
  8
0
  6
Continuous
 62
     7
370
    25
100
AcDbCircle
 10
276.4898448052
 20
160.5919024617
 30
0.0
 40
0.9999973765452922
100
AcDbArc
 50
270.6285521205
 51
0.0001389096
  0
ARC
  5
1B1
330
1F
100
AcDbEntity
  8
0
  6
Continuous
 62
     7
370
    25
100
AcDbCircle
 10
276.4898448052
 20
177.6028792143
 30
0.0
 40
0.9999973765452922
100
AcDbArc
 50
359.9998610904
 51
89.3714478795
  0
LINE
  5
1B2
330
1F
100
AcDbEntity
  8
0
  6
Continuous
 62
     7
370
    25
100
AcDbLine
 10
277.4898421818
 20
161.8473910466
 30
0.0
 11
325.0451137179
 21
161.8473910466
 31
0.0
  0
LINE
  5
1B3
330
1F
100
AcDbEntity
  8
0
  6
Continuous
 62
     7
370
    25
100
AcDbLine
 10
326.1928756588
 20
176.3473906294
 30
0.0
 11
277.4898421818
 21
176.3473906294
 31
0.0
  0
LINE
  5
1B4
330
1F
100
AcDbEntity
  8
0
  6
Continuous
 62
     7
370
    25
100
AcDbLine
 10
195.5898453349
 20
149.9973916188
 30
0.0
 11
222.4898443424
 21
149.9973916188
 31
0.0
  0
LINE
  5
1B5
330
1F
100
AcDbEntity
  8
0
  6
Continuous
 62
     7
370
    25
100
AcDbLine
 10
222.4898443424
 20
188.1973900572
 30
0.0
 11
195.5898453349
 21
188.1973900572
 31
0.0
  0
ARC
  5
1B6
330
1F
100
AcDbEntity
  8
0
  6
Continuous
 62
     7
370
    25
100
AcDbCircle
 10
195.5898429483
 20
187.1973922798
 30
0.0
 40
0.999997777349796
100
AcDbArc
 50
89.9998632597
 51
180.0000300185
  0
ARC
  5
1B7
330
1F
100
AcDbEntity
  8
0
  6
Continuous
 62
     7
370
    25
100
AcDbCircle
 10
195.5898429483
 20
150.9973893962
 30
0.0
 40
0.9999977773497676
100
AcDbArc
 50
179.9999699815
 51
270.0001367403
  0
ARC
  5
1B8
330
1F
100
AcDbEntity
  8
0
  6
Continuous
 62
     7
370
    25
100
AcDbCircle
 10
222.4898475892
 20
186.6973942755
 30
0.0
 40
1.499995781663584
100
AcDbArc
 50
11.5368343263
 51
90.0001240186
  0
ARC
  5
1B9
330
1F
100
AcDbEntity
  8
0
  6
Continuous
 62
     7
370
    25
100
AcDbCircle
 10
222.4898475892
 20
151.4973874005
 30
0.0
 40
1.499995781663578
100
AcDbArc
 50
269.9998759814
 51
348.4631656737
  0
ARC
  5
1BA
330
1F
100
AcDbEntity
  8
0
  6
Continuous
 62
     7
370
    25
100
AcDbCircle
 10
224.4494351169
 20
187.0973901192
 30
0.0
 40
0.4999992066979013
100
AcDbArc
 50
191.5369642783
 51
270.0000989915
  0
ARC
  5
1BB
330
1F
100
AcDbEntity
  8
0
  6
Continuous
 62
     7
370
    25
100
AcDbCircle
 10
224.4494351169
 20
151.0973915568
 30
0.0
 40
0.4999992066979149
100
AcDbArc
 50
89.9999010085
 51
168.4630357217
  0
LINE
  5
1BC
330
1F
100
AcDbEntity
  8
0
  6
Continuous
 62
     7
370
    25
100
AcDbLine
 10
227.4898442307
 20
151.5973907635
 30
0.0
 11
227.9898443126
 21
152.0973899141
 31
0.0
  0
LINE
  5
1BD
330
1F
100
AcDbEntity
  8
0
  6
Continuous
 62
     7
370
    25
100
AcDbLine
 10
227.9898443126
 20
186.0973917619
 30
0.0
 11
227.4898442307
 21
186.5973909125
 31
0.0
  0
LINE
  5
1BE
330
1F
100
AcDbEntity
  8
0
  6
Continuous
 62
     7
370
    25
100
AcDbLine
 10
224.4494359807
 20
151.5973907635
 30
0.0
 11
227.4898442307
 21
151.5973907635
 31
0.0
  0
LINE
  5
1BF
330
1F
100
AcDbEntity
  8
0
  6
Continuous
 62
     7
370
    25
100
AcDbLine
 10
227.4898442307
 20
186.5973909125
 30
0.0
 11
224.4494359807
 21
186.5973909125
 31
0.0
  0
LINE
  5
1C0
330
1F
100
AcDbEntity
  8
0
  6
Continuous
 62
     7
370
    25
100
AcDbLine
 10
119.1821743601
 20
164.5993393585
 30
0.0
 11
141.0898466462
 21
164.5993393585
 31
0.0
  0
LINE
  5
1C1
330
1F
100
AcDbEntity
  8
0
  6
Continuous
 62
     7
370
    25
100
AcDbLine
 10
141.0898466462
 20
175.1388915554
 30
0.0
 11
123.5683907622
 21
175.1388915554
 31
0.0
  0
LINE
  5
1C2
330
1F
100
AcDbEntity
  8
0
  6
Continuous
 62
     7
370
    25
100
AcDbLine
 10
121.8866531604
 20
171.1398706511
 30
0.0
 11
141.0898466462
 21
171.1398706511
 31
0.0
  0
LINE
  5
1C3
330
1F
100
AcDbEntity
  8
0
  6
Continuous
 62
     7
370
    25
100
AcDbLine
 10
141.0898466462
 20
171.0972363334
 30
0.0
 11
121.8254838937
 21
171.0972363334
 31
0.0
  0
LINE
  5
1C4
330
1F
100
AcDbEntity
  8
0
  6
Continuous
 62
     7
370
    25
100
AcDbLine
 10
117.6581282967
 20
167.0975453425
 30
0.0
 11
141.0898466462
 21
167.0975453425
 31
0.0
  0
LINE
  5
1C5
330
1F
100
AcDbEntity
  8
0
  6
Continuous
 62
     7
370
    25
100
AcDbLine
 10
154.5898442024
 20
148.0973911211
 30
0.0
 11
157.5898428315
 21
148.0973911211
 31
0.0
  0
LINE
  5
1C6
330
1F
100
AcDbEntity
  8
0
  6
Continuous
 62
     7
370
    25
100
AcDbLine
 10
157.5898428315
 20
190.0973905549
 30
0.0
 11
154.5898442024
 21
190.0973905549
 31
0.0
  0
LINE
  5
1C7
330
1F
100
AcDbEntity
  8
0
  6
Continuous
 62
     7
370
    25
100
AcDbLine
 10
144.0898452753
 20
159.1796901748
 30
0.0
 11
152.5898401493
 21
159.1796901748
 31
0.0
  0
LINE
  5
1C8
330
1F
100
AcDbEntity
  8
0
  6
Continuous
 62
     7
370
    25
100
AcDbLine
 10
152.5898401493
 20
179.0150915012
 30
0.0
 11
144.0898452753
 21
179.0150915012
 31
0.0
  0
SPLINE
  5
1C9
330
1F
100
AcDbEntity
  8
0
  6
Continuous
 62
     7
370
    25
100
AcDbSpline
210
0.0
220
0.0
230
1.0
 70
     8
 71
     3
 72
     9
 73
     5
 74
     0
 42
0.000000001
 43
0.00000001
 40
0.0
 40
0.0
 40
0.0
 40
0.0
 40
0.5180144915002787
 40
1.0
 40
1.0
 40
1.0
 40
1.0
 10
143.1100641244334
 20
178.9132038802117
 30
0.0
 10
143.0683500430192
 20
178.9031435527681
 30
0.0
 10
142.987823181129
 20
178.8837226145345
 30
0.0
 10
142.9051113841331
 20
178.8795192217968
 30
0.0
 10
142.865245496599
 20
178.8774932474107
 30
0.0
  0
SPLINE
  5
1CA
330
1F
100
AcDbEntity
  8
0
  6
Continuous
 62
     7
370
    25
100
AcDbSpline
210
0.0
220
0.0
230
1.0
 70
     8
 71
     3
 72
     9
 73
     5
 74
     0
 42
0.000000001
 43
0.00000001
 40
0.0
 40
0.0
 40
0.0
 40
0.0
 40
0.3117686212015281
 40
1.0
 40
1.0
 40
1.0
 40
1.0
 10
142.8556416982096
 20
159.3196213916153
 30
0.0
 10
142.8830216254208
 20
159.3183556788033
 30
0.0
 10
142.9708429305466
 20
159.3142958962406
 30
0.0
 10
143.0567774487992
 20
159.2949549593388
 30
0.0
 10
143.1159202807825
 20
159.2816439196676
 30
0.0
  0
LINE
  5
1CB
330
1F
100
AcDbEntity
  8
0
  6
Continuous
 62
     7
370
    25
100
AcDbLine
 10
144.0898452753
 20
157.4909248129
 30
0.0
 11
152.5898401493
 21
157.4909248129
 31
0.0
  0
LINE
  5
1CC
330
1F
100
AcDbEntity
  8
0
  6
Continuous
 62
     7
370
    25
100
AcDbLine
 10
152.5898401493
 20
180.7038568631
 30
0.0
 11
144.0898452753
 21
180.7038568631
 31
0.0
  0
SPLINE
  5
1CD
330
1F
100
AcDbEntity
  8
0
  6
Continuous
 62
     7
370
    25
100
AcDbSpline
210
0.0
220
0.0
230
1.0
 70
     8
 71
     3
 72
     9
 73
     5
 74
     0
 42
0.000000001
 43
0.00000001
 40
0.0
 40
0.0
 40
0.0
 40
0.0
 40
0.5180141234725908
 40
1.0
 40
1.0
 40
1.0
 40
1.0
 10
143.1100641244334
 20
180.6019692421168
 30
0.0
 10
143.068350026592
 20
180.5919093051727
 30
0.0
 10
142.9878230757788
 20
180.5724891069807
 30
0.0
 10
142.9051113704102
 20
180.5682855808601
 30
0.0
 10
142.865245496599
 20
180.5662595406383
 30
0.0
  0
SPLINE
  5
1CE
330
1F
100
AcDbEntity
  8
0
  6
Continuous
 62
     7
370
    25
100
AcDbSpline
210
0.0
220
0.0
230
1.0
 70
     8
 71
     3
 72
     9
 73
     5
 74
     0
 42
0.000000001
 43
0.00000001
 40
0.0
 40
0.0
 40
0.0
 40
0.0
 40
0.3117689765034798
 40
1.0
 40
1.0
 40
1.0
 40
1.0
 10
142.8556416982096
 20
157.6308560297102
 30
0.0
 10
142.88302161854
 20
157.6295899379811
 30
0.0
 10
142.9708428015115
 20
157.6255289446669
 30
0.0
 10
143.0567774142819
 20
157.6061889453126
 30
0.0
 10
143.1159202807825
 20
157.5928785577625
 30
0.0
  0
ARC
  5
1CF
330
1F
100
AcDbEntity
  8
0
  6
Continuous
 62
     7
370
    25
100
AcDbCircle
 10
159.5898495078
 20
148.5973820606
 30
0.0
 40
0.4999909395886356
100
AcDbArc
 50
269.9988456115
 51
0.0009409451
  0
ARC
  5
1D0
330
1F
100
AcDbEntity
  8
0
  6
Continuous
 62
     7
370
    25
100
AcDbCircle
 10
159.5898495078
 20
189.5973996154
 30
0.0
 40
0.4999909395886162
100
AcDbArc
 50
359.9990590549
 51
90.0011543885
  0
LINE
  5
1D1
330
1F
100
AcDbEntity
  8
0
  6
Continuous
 62
     7
370
    25
100
AcDbLine
 10
159.589839434
 20
190.0973905549
 30
0.0
 11
158.0898438447
 21
190.0973905549
 31
0.0
  0
LINE
  5
1D2
330
1F
100
AcDbEntity
  8
0
  6
Continuous
 62
     7
370
    25
100
AcDbLine
 10
158.0898438447
 20
148.0973911211
 30
0.0
 11
159.589839434
 21
148.0973911211
 31
0.0
  0
ARC
  5
1D3
330
1F
100
AcDbEntity
  8
0
  6
Continuous
 62
     7
370
    25
100
AcDbCircle
 10
158.0898464898
 20
189.5973868966
 30
0.0
 40
0.5000036583171025
100
AcDbArc
 50
90.0003030945
 51
179.9994834621
  0
ARC
  5
1D4
330
1F
100
AcDbEntity
  8
0
  6
Continuous
 62
     7
370
    25
100
AcDbCircle
 10
158.0898464898
 20
148.5973947794
 30
0.0
 40
0.5000036583170672
100
AcDbArc
 50
180.0005165379
 51
269.9996969055
  0
LINE
  5
1D5
330
1F
100
AcDbEntity
  8
0
  6
Continuous
 62
     7
370
    25
100
AcDbLine
 10
141.5898402089
 20
185.7853912488
 30
0.0
 11
141.0898466462
 21
185.2853902355
 31
0.0
  0
LINE
  5
1D6
330
1F
100
AcDbEntity
  8
0
  6
Continuous
 62
     7
370
    25
100
AcDbLine
 10
141.0898466462
 20
152.9093914405
 30
0.0
 11
141.5898402089
 21
152.4093904272
 31
0.0
  0
LINE
  5
1D7
330
1F
100
AcDbEntity
  8
0
  6
Continuous
 62
     7
370
    25
100
AcDbLine
 10
160.6147263997
 20
165.1389909648
 30
0.0
 11
167.8472024256
 21
165.1389909648
 31
0.0
  0
SPLINE
  5
1D8
330
1F
100
AcDbEntity
  8
0
  6
Continuous
 62
     7
370
    25
100
AcDbSpline
210
0.0
220
0.0
230
1.0
 70
     8
 71
     3
 72
    11
 73
     7
 74
     0
 42
0.000000001
 43
0.00000001
 40
0.0
 40
0.0
 40
0.0
 40
0.0
 40
0.0175888920893529
 40
0.223247089573774
 40
0.6600094509662211
 40
1.0
 40
1.0
 40
1.0
 40
1.0
 10
160.349046146242
 20
165.0581642724782
 30
0.0
 10
160.3503510802663
 20
165.0591781787846
 30
0.0
 10
160.3669139610616
 20
165.0720471890015
 30
0.0
 10
160.4214310695787
 20
165.1018780092918
 30
0.0
 10
160.5094477241425
 20
165.1364670570914
 30
0.0
 10
160.5829647020624
 20
165.1334963402161
 30
0.0
 10
160.6151436322611
 20
165.132196035257
 30
0.0
  0
LINE
  5
1D9
330
1F
100
AcDbEntity
  8
0
  6
Continuous
 62
     7
370
    25
100
AcDbLine
 10
154.5898442024
 20
151.1472043321
 30
0.0
 11
154.6159361356
 21
151.1020221487
 31
0.0
  0
ARC
  5
1DA
330
1F
100
AcDbEntity
  8
0
  6
Continuous
 62
     7
370
    25
100
AcDbCircle
 10
160.5898425157
 20
184.4286182941
 30
0.0
 40
0.5000020684067626
100
AcDbArc
 50
180.0002276294
 51
269.9998790922
  0
SPLINE
  5
1DB
330
1F
100
AcDbEntity
  8
0
  6
Continuous
 62
     7
370
    25
100
AcDbSpline
210
0.0
220
0.0
230
1.0
 70
     8
 71
     3
 72
    10
 73
     6
 74
     0
 42
0.000000001
 43
0.00000001
 40
0.0
 40
0.0
 40
0.0
 40
0.0
 40
0.0461631946920407
 40
0.8716726431717564
 40
1.0
 40
1.0
 40
1.0
 40
1.0
 10
168.6898444646281
 20
183.8283677324861
 30
0.0
 10
168.6774342155447
 20
183.8324881251088
 30
0.0
 10
168.4430987304672
 20
183.9102910924359
 30
0.0
 10
168.1530117289837
 20
183.9425155706932
 30
0.0
 10
167.8836930801219
 20
183.9225867505702
 30
0.0
 10
167.8474594705981
 20
183.9199055656999
 30
0.0
  0
LINE
  5
1DC
330
1F
100
AcDbEntity
  8
0
  6
Continuous
 62
     7
370
    25
100
AcDbLine
 10
167.8472024256
 20
183.9286162257
 30
0.0
 11
160.5898414606
 21
183.9286162257
 31
0.0
  0
ARC
  5
1DD
330
1F
100
AcDbEntity
  8
0
  6
Continuous
 62
     7
370
    25
100
AcDbCircle
 10
162.5898460197
 20
188.097396321
 30
0.0
 40
2.500005572454483
100
AcDbArc
 50
180.0001396637
 51
269.999903025
  0
LINE
  5
1DE
330
1F
100
AcDbEntity
  8
0
  6
Continuous
 62
     7
370
    25
100
AcDbLine
 10
168.6898444646
 20
185.5973907486
 30
0.0
 11
162.5898417884
 21
185.5973907486
 31
0.0
  0
ARC
  5
1DF
330
1F
100
AcDbEntity
  8
0
  6
Continuous
 62
     7
370
    25
100
AcDbCircle
 10
160.5898441056
 20
150.6291553676
 30
0.0
 40
0.500003658317074
100
AcDbArc
 50
90.0003030945
 51
179.9994834621
  0
LINE
  5
1E0
330
1F
100
AcDbEntity
  8
0
  6
Continuous
 62
     7
370
    25
100
AcDbLine
 10
160.5898414606
 20
151.1291590259
 30
0.0
 11
167.8472024256
 21
151.1291590259
 31
0.0
  0
LWPOLYLINE
  5
1E1
330
1F
100
AcDbEntity
  8
0
  6
Continuous
 62
     7
370
    25
100
AcDbPolyline
 90
        3
 70
   128
 43
0.0
 10
160.0898404473
 20
150.0973914489
 10
160.137881791
 20
150.585115768
 10
160.2605854028
 20
151.0054439977
  0
ARC
  5
1E2
330
1F
100
AcDbEntity
  8
0
  6
Continuous
 62
     7
370
    25
100
AcDbCircle
 10
160.5898443428
 20
187.5656300445
 30
0.0
 40
0.5000073943769021
100
AcDbArc
 50
228.8138058096
 51
269.9996697222
  0
LINE
  5
1E3
330
1F
100
AcDbEntity
  8
0
  6
Continuous
 62
     7
370
    25
100
AcDbLine
 10
167.8472024256
 20
187.0656226501
 30
0.0
 11
160.5898414606
 21
187.0656226501
 31
0.0
  0
ARC
  5
1E4
330
1F
100
AcDbEntity
  8
0
  6
Continuous
 62
     7
370
    25
100
AcDbCircle
 10
186.189841192
 20
152.097398976
 30
0.0
 40
4.000007854919167
100
AcDbArc
 50
270.0000212633
 51
321.1507609307
  0
ARC
  5
1E5
330
1F
100
AcDbEntity
  8
0
  6
Continuous
 62
     7
370
    25
100
AcDbCircle
 10
186.189841192
 20
186.0973826999
 30
0.0
 40
4.000007854919195
100
AcDbArc
 50
38.8492390693
 51
89.9999787367
  0
LINE
  5
1E6
330
1F
100
AcDbEntity
  8
0
  6
Continuous
 62
     7
370
    25
100
AcDbLine
 10
169.1898417526
 20
148.0973911211
 30
0.0
 11
186.1898426765
 21
148.0973911211
 31
0.0
  0
LINE
  5
1E7
330
1F
100
AcDbEntity
  8
0
  6
Continuous
 62
     7
370
    25
100
AcDbLine
 10
186.1898426765
 20
190.0973905549
 30
0.0
 11
169.1898417526
 21
190.0973905549
 31
0.0
  0
ARC
  5
1E8
330
1F
100
AcDbEntity
  8
0
  6
Continuous
 62
     7
370
    25
100
AcDbCircle
 10
169.1898417634
 20
189.5973932561
 30
0.0
 40
0.4999972988079834
100
AcDbArc
 50
90.0000012394
 51
180.0002122048
  0
ARC
  5
1E9
330
1F
100
AcDbEntity
  8
0
  6
Continuous
 62
     7
370
    25
100
AcDbCircle
 10
169.1898417634
 20
148.5973884199
 30
0.0
 40
0.4999972988079834
100
AcDbArc
 50
179.9997877952
 51
269.9999987606
  0
ARC
  5
1EA
330
1F
100
AcDbEntity
  8
0
  6
Continuous
 62
     7
370
    25
100
AcDbCircle
 10
194.7566437889
 20
145.1973875543
 30
0.0
 40
7.000004161119782
100
AcDbArc
 50
91.365393681
 51
141.1507898308
  0
ARC
  5
1EB
330
1F
100
AcDbEntity
  8
0
  6
Continuous
 62
     7
370
    25
100
AcDbCircle
 10
194.7566437889
 20
192.9973941217
 30
0.0
 40
7.000004161119782
100
AcDbArc
 50
218.8492101692
 51
268.634606319
  0
SPLINE
  5
1EC
330
1F
100
AcDbEntity
  8
0
  6
Continuous
 62
     7
370
    25
100
AcDbSpline
210
0.0
220
0.0
230
1.0
 70
     8
 71
     3
 72
    13
 73
     9
 74
     0
 42
0.000000001
 43
0.00000001
 40
0.0
 40
0.0
 40
0.0
 40
0.0
 40
0.1419882813229462
 40
0.4384264098009276
 40
0.7128599182059027
 40
0.9063966862694934
 40
0.996641958583499
 40
1.0
 40
1.0
 40
1.0
 40
1.0
 10
194.6936187201422
 20
183.0008727237791
 30
0.0
 10
194.6392832152234
 20
182.9994859480547
 30
0.0
 10
194.4715079585309
 20
182.9952039108586
 30
0.0
 10
194.2048194452402
 20
183.0567064815417
 30
0.0
 10
193.9390910302071
 20
183.2261208425336
 30
0.0
 10
193.776605841725
 20
183.2700079257095
 30
0.0
 10
193.7046877213358
 20
183.482484630515
 30
0.0
 10
193.6919394495625
 20
183.4479101979842
 30
0.0
 10
193.6914821022433
 20
183.4466698318928
 30
0.0
  0
SPLINE
  5
1ED
330
1F
100
AcDbEntity
  8
0
  6
Continuous
 62
     7
370
    25
100
AcDbSpline
210
0.0
220
0.0
230
1.0
 70
     8
 71
     3
 72
    14
 73
    10
 74
     0
 42
0.000000001
 43
0.00000001
 40
0.0
 40
0.0
 40
0.0
 40
0.0
 40
0.0010697756529825
 40
0.0502451828040756
 40
0.1794615827017925
 40
0.3981695443664034
 40
0.694588482495508
 40
0.9807559297769634
 40
1.0
 40
1.0
 40
1.0
 40
1.0
 10
193.6880790495556
 20
154.7341969534963
 30
0.0
 10
193.6881208650959
 20
154.7337785526117
 30
0.0
 10
193.6900848558273
 20
154.7141271155291
 30
0.0
 10
193.7360112706806
 20
154.8550063665263
 30
0.0
 10
193.8337360834074
 20
154.8928301225726
 30
0.0
 10
194.0466707340339
 20
155.0740794576448
 30
0.0
 10
194.3357582301598
 20
155.1630830801894
 30
0.0
 10
194.5682050774013
 20
155.2100387869751
 30
0.0
 10
194.6855592355429
 20
155.2026984256776
 30
0.0
 10
194.6929537558239
 20
155.2022359073371
 30
0.0
  0
ARC
  5
1EE
330
1F
100
AcDbEntity
  8
0
  6
Continuous
 62
     7
370
    18
100
AcDbCircle
 10
120.5156553612
 20
174.0695535931
 30
0.0
 40
3.234606174832935
100
AcDbArc
 50
295.078088873
 51
19.3047684253
  0
LWPOLYLINE
  5
1EF
330
1F
100
AcDbEntity
  8
0
  6
Continuous
 62
     7
370
    18
100
AcDbPolyline
 90
      226
 70
   128
 43
0.0
 10
121.8254838937
 20
171.0972363334
 10
121.7785899394
 20
171.0648828857
 10
121.7314128631
 20
171.0326122092
 10
121.6839675659
 20
171.000422325
 10
121.6362763995
 20
170.9683110211
 10
121.5883393639
 20
170.9362763185
 10
121.5410281771
 20
170.9048858583
 10
121.4935158246
 20
170.8735652473
 10
121.4458023065
 20
170.8423122736
 10
121.3979099744
 20
170.8111249581
 10
121.3291783684
 20
170.7666816628
 10
121.2601263874
 20
170.7223623498
 10
121.1907912844
 20
170.6781613147
 10
121.1211954111
 20
170.634072504
 10
121.0513834709
 20
170.5900900969
 10
120.9576477164
 20
170.5313749816
 10
120.8636511916
 20
170.4728258746
 10
120.769490754
 20
170.414428806
 10
120.6752334588
 20
170.3561696895
 10
120.5809687131
 20
170.2980343225
 10
120.4884474033
 20
170.2410440166
 10
120.396075105
 20
170.1841462609
 10
120.3039263242
 20
170.1273275512
 10
120.2120755666
 20
170.0705747907
 10
120.1510478609
 20
170.0327695552
 10
120.0902064198
 20
169.9949836447
 10
120.0295735949
 20
169.9572132174
 10
119.9691791886
 20
169.9194541988
 10
119.9090455526
 20
169.8817027472
 10
119.8491875881
 20
169.8439547881
 10
119.7930325621
 20
169.8083635974
 10
119.7371681088
 20
169.7727687396
 10
119.6816091293
 20
169.7371668969
 10
119.6263779753
 20
169.7015546933
 10
119.5714895481
 20
169.6659289273
 10
119.5280899161
 20
169.6375783622
 10
119.4849287027
 20
169.6092153406
 10
119.442020809
 20
169.5808383492
 10
119.3993736857
 20
169.5524455835
 10
119.3569947833
 20
169.524035472
 10
119.3148990029
 20
169.4956062974
 10
119.2730863446
 20
169.4671564009
 10
119.2315791601
 20
169.4386841236
 10
119.1945646757
 20
169.4130967343
 10
119.157803511
 20
169.3874887396
 10
119.1213105672
 20
169.361858917
 10
119.0850858444
 20
169.3362061023
 10
119.0491293424
 20
169.3105290442
 10
119.0134634131
 20
169.2848265638
 10
118.9780880564
 20
169.2590974244
 10
118.943010723
 20
169.2333404471
 10
118.9082314127
 20
169.2075544169
 10
118.8737724775
 20
169.1817381115
 10
118.8396264666
 20
169.1558903376
 10
118.8058008307
 20
169.13000988
 10
118.7723179215
 20
169.1040955356
 10
118.7391628378
 20
169.0781460938
 10
118.709084844
 20
169.0543272425
 10
118.6792974227
 20
169.0304769554
 10
118.6498080247
 20
169.0065943084
 10
118.6206315511
 20
168.9826783595
 10
118.5917605513
 20
168.9587281844
 10
118.5632099265
 20
168.9347428446
 10
118.5375948304
 20
168.9129543929
 10
118.5122405046
 20
168.8911355422
 10
118.4871693009
 20
168.8692856087
 10
118.4623737687
 20
168.8474038937
 10
118.4378539079
 20
168.8254896989
 10
118.4136246198
 20
168.8035423549
 10
118.39104191
 20
168.7828181575
 10
118.3687274211
 20
168.7620632556
 10
118.346666252
 20
168.7412770961
 10
118.3248807543
 20
168.720459068
 10
118.3033634776
 20
168.6996086473
 10
118.2821218723
 20
168.6787251937
 10
118.2611559385
 20
168.6578081544
 10
118.2404731267
 20
168.636856918
 10
118.2200734371
 20
168.6158709608
 10
118.19996432
 20
168.5948496424
 10
118.1804959529
 20
168.5741687515
 10
118.1613032573
 20
168.553452645
 10
118.1424085849
 20
168.532700799
 10
118.1237970346
 20
168.5119126314
 10
118.1051556819
 20
168.4907086864
 10
118.0868198031
 20
168.4694658588
 10
118.068789398
 20
168.448183741
 10
118.051079368
 20
168.4268616345
 10
118.0336822623
 20
168.4054990155
 10
118.0169110053
 20
168.3844778426
 10
118.0004526728
 20
168.3634164483
 10
117.9843147152
 20
168.3423142503
 10
117.968489682
 20
168.3211707832
 10
117.95267955
 20
168.2995526325
 10
117.9372046941
 20
168.2778903605
 10
117.9220725649
 20
168.2561832685
 10
117.9072831624
 20
168.2344308328
 10
117.8928439372
 20
168.2126324713
 10
117.8787623399
 20
168.1907875436
 10
117.8650309199
 20
168.1688955841
 10
117.85168693
 20
168.1470037992
 10
117.8387080186
 20
168.1250639348
 10
117.8260941857
 20
168.1030754671
 10
117.8138454312
 20
168.0810376974
 10
117.8019692057
 20
168.0589502184
 10
117.7906741255
 20
168.0372080272
 10
117.7797366732
 20
168.0154167088
 10
117.7691717499
 20
167.9935755646
 10
117.7589719051
 20
167.9716842454
 10
117.75018022
 20
167.9520955049
 10
117.7416940087
 20
167.9324659026
 10
117.7335132712
 20
167.9127949728
 10
117.7256305569
 20
167.8930822499
 10
117.7180533164
 20
167.8733276176
 10
117.7107890004
 20
167.8535303772
 10
117.7038376087
 20
167.8336902959
 10
117.6971991414
 20
167.8138070246
 10
117.690881049
 20
167.7938799812
 10
117.684875881
 20
167.7739089327
 10
117.679191088
 20
167.75389353
 10
117.6738341206
 20
167.7338333074
 10
117.6687975281
 20
167.7137277993
 10
117.6640887612
 20
167.6935772384
 10
117.6597003692
 20
167.6733815083
 10
117.6556249016
 20
167.653140842
 10
117.6517058962
 20
167.6318882937
 10
117.6481296175
 20
167.6105866181
 10
117.6448960656
 20
167.5892359317
 10
117.6420126909
 20
167.5678364672
 10
117.6394571417
 20
167.5463882247
 10
117.6372517699
 20
167.5248914371
 10
117.6353444212
 20
167.5030011656
 10
117.6337872499
 20
167.481060952
 10
117.6325653547
 20
167.459071029
 10
117.6316861862
 20
167.4370313967
 10
117.6311422938
 20
167.4149422879
 10
117.6309411281
 20
167.3928038189
 10
117.6310454362
 20
167.3718852662
 10
117.6314477676
 20
167.3509230577
 10
117.6321406716
 20
167.3299173098
 10
117.6331241482
 20
167.3088680227
 10
117.6343907469
 20
167.287775429
 10
117.6359404677
 20
167.2666396452
 10
117.6377807611
 20
167.2454606714
 10
117.639896726
 20
167.2242387403
 10
117.6422958129
 20
167.202973852
 10
117.6449705714
 20
167.1816662392
 10
117.6478688472
 20
167.1606975114
 10
117.6510278934
 20
167.139687689
 10
117.6544477099
 20
167.1186370049
 10
117.6581282967
 20
167.0975453425
 10
117.6628445142
 20
167.0723817051
 10
117.6679258102
 20
167.0471603256
 10
117.6733721846
 20
167.0218816698
 10
117.6791687363
 20
166.9965457376
 10
117.6853154653
 20
166.9711525291
 10
117.6917006129
 20
166.9461576939
 10
117.698413586
 20
166.9211079106
 10
117.7054618352
 20
166.8960036449
 10
117.71283791
 20
166.8708448969
 10
117.7206982726
 20
166.8451171108
 10
117.7288939112
 20
166.8193327468
 10
117.737424826
 20
166.7934925035
 10
117.7462835663
 20
166.767596148
 10
117.7554701322
 20
166.7416441459
 10
117.764977073
 20
166.7156364974
 10
117.7748043888
 20
166.6895734351
 10
117.7849520796
 20
166.663455192
 10
117.7954126948
 20
166.6372820009
 10
117.8061787837
 20
166.6110538617
 10
117.8172503465
 20
166.5847710073
 10
117.8286348337
 20
166.5584336706
 10
117.8403098935
 20
166.5320418515
 10
117.8522904271
 20
166.5055960156
 10
117.8658057803
 20
166.4764432907
 10
117.8796713108
 20
166.4472253733
 10
117.8938870185
 20
166.417942496
 10
117.908445453
 20
166.3885951247
 10
117.9233466142
 20
166.3591834922
 10
117.9395069235
 20
166.3279189933
 10
117.9560472124
 20
166.2965827827
 10
117.9729525798
 20
166.2651748602
 10
117.9902155751
 20
166.2336956915
 10
118.0078436488
 20
166.2021455094
 10
118.0258144492
 20
166.1705245469
 10
118.0430774444
 20
166.1406458561
 10
118.0606459135
 20
166.1107047666
 10
118.0785124057
 20
166.0807015114
 10
118.0966694706
 20
166.0506363232
 10
118.1151245588
 20
166.0205094349
 10
118.133862769
 20
165.9903210793
 10
118.1528841012
 20
165.9600712564
 10
118.1721885556
 20
165.9297606647
 10
118.1917612308
 20
165.8993890714
 10
118.2116021269
 20
165.868957175
 10
118.2313536161
 20
165.8390097991
 10
118.2513509744
 20
165.8090046812
 10
118.2715942019
 20
165.7789415885
 10
118.2920907491
 20
165.7488212195
 10
118.3144871944
 20
165.7162300516
 10
118.3371593111
 20
165.6835722942
 10
118.3600996488
 20
165.6508484129
 10
118.3833082074
 20
165.6180584077
 10
118.4067700857
 20
165.5852029771
 10
118.4304927343
 20
165.5522818882
 10
118.4587676876
 20
165.5133987051
 10
118.4873853677
 20
165.4744254165
 10
118.5163234228
 20
165.4353624881
 10
118.5455893033
 20
165.3962106183
 10
118.5757790559
 20
165.3561681714
 10
118.6062817329
 20
165.3160339892
 10
118.6370898837
 20
165.2758085374
 10
118.6682035082
 20
165.2354922816
 10
118.6996077054
 20
165.1950856876
 10
118.7312875741
 20
165.1545892209
 10
118.7632431143
 20
165.1140035801
 10
118.8008610958
 20
165.0665410534
 10
118.8388292545
 20
165.0189583861
 10
118.8771177882
 20
164.9712565094
 10
118.9157341474
 20
164.9234358892
 10
118.9546485299
 20
164.875496991
 10
118.9938609355
 20
164.8274416775
 10
119.0310765856
 20
164.7820252665
 10
119.0685306543
 20
164.73650641
 10
119.1062082404
 20
164.690885108
 10
119.1440869921
 20
164.6451627575
 10
119.1821743601
 20
164.5993393585
  0
ARC
  5
1F0
330
1F
100
AcDbEntity
  8
0
  6
Continuous
 62
     7
370
    18
100
AcDbCircle
 10
120.3769392194
 20
69.7970421107
 30
0.0
 40
66.63472738832901
100
AcDbArc
 50
59.1067901963
 51
61.0906581609
  0
LWPOLYLINE
  5
1F1
330
1F
100
AcDbEntity
  8
0
  6
Continuous
 62
     7
370
    18
100
AcDbPolyline
 90
      322
 70
   128
 43
0.0
 10
325.0451137179
 20
161.8473910466
 10
324.9640812033
 20
161.9506314136
 10
324.8830114358
 20
162.0538512916
 10
324.8019565695
 20
162.1570516117
 10
324.7209911102
 20
162.2602347024
 10
324.6401895636
 20
162.3634010293
 10
324.5596040839
 20
162.4665533863
 10
324.4793166274
 20
162.5696922392
 10
324.424323892
 20
162.6405933611
 10
324.3695248717
 20
162.7114898265
 10
324.3149419182
 20
162.7823816352
 10
324.2605899328
 20
162.8532692529
 10
324.2064987176
 20
162.9241536111
 10
324.1526906246
 20
162.9950347096
 10
324.0991880053
 20
163.0659134798
 10
324.0460132116
 20
163.1367899217
 10
323.9986573213
 20
163.2002944797
 10
323.9515994543
 20
163.2637976408
 10
323.904847061
 20
163.3273003362
 10
323.8584299439
 20
163.3908030316
 10
323.8123481029
 20
163.4543061927
 10
323.7763990515
 20
163.5042017997
 10
323.7406735176
 20
163.5540978722
 10
323.7051864022
 20
163.6039944105
 10
323.6699377054
 20
163.6538918801
 10
323.6349497789
 20
163.703790281
 10
323.6002151721
 20
163.7536900789
 10
323.5657562369
 20
163.8035912737
 10
323.5315655225
 20
163.8534943313
 10
323.4976579302
 20
163.9033987858
 10
323.4640483612
 20
163.9533051029
 10
323.4313254112
 20
164.002322007
 10
323.3988930338
 20
164.051341705
 10
323.3667661303
 20
164.1003632657
 10
323.3349521511
 20
164.1493871547
 10
323.3053956979
 20
164.1953730695
 10
323.2761298173
 20
164.2413617783
 10
323.2471470588
 20
164.2873528153
 10
323.2184697741
 20
164.3333466463
 10
323.1900905126
 20
164.3793432713
 10
323.1620241755
 20
164.4253426902
 10
323.1358428353
 20
164.4687167108
 10
323.1099520677
 20
164.5120939911
 10
323.0843518728
 20
164.5554735996
 10
323.0590497011
 20
164.5988569334
 10
323.034038102
 20
164.6422430612
 10
323.0093394273
 20
164.6856324487
 10
322.984953677
 20
164.7290255614
 10
322.9608808511
 20
164.7724223994
 10
322.9371284002
 20
164.8158229627
 10
322.9136963242
 20
164.8592267856
 10
322.8910093063
 20
164.9018599391
 10
322.8686501139
 20
164.9444968179
 10
322.8466112965
 20
164.987137422
 10
322.8249152058
 20
165.029782217
 10
322.803166961
 20
165.0732069947
 10
322.7817688936
 20
165.1166359633
 10
322.7607433551
 20
165.1600695886
 10
322.7400754445
 20
165.2035078705
 10
322.719780063
 20
165.2469510418
 10
322.7002148384
 20
165.2896233108
 10
322.6810146922
 20
165.3323002365
 10
322.662187075
 20
165.3749822844
 10
322.6437394374
 20
165.4176694546
 10
322.6275865787
 20
165.4557873234
 10
322.6117391938
 20
165.4939093832
 10
322.5962121838
 20
165.5320356339
 10
322.5809906476
 20
165.5701663085
 10
322.5660894864
 20
165.6083014067
 10
322.5515161508
 20
165.6464411617
 10
322.5372631901
 20
165.6845853403
 10
322.523338055
 20
165.7227341756
 10
322.5104112976
 20
165.7589917276
 10
322.4977825635
 20
165.7952534706
 10
322.4854667538
 20
165.8315196373
 10
322.4734564179
 20
165.8677902278
 10
322.4617590063
 20
165.9040654749
 10
322.4503745192
 20
165.9403451458
 10
322.4399288052
 20
165.9745561164
 10
322.4297662133
 20
166.008771278
 10
322.419894194
 20
166.0429906305
 10
322.4103127473
 20
166.0772144068
 10
322.4010218733
 20
166.1114426069
 10
322.392021572
 20
166.145674998
 10
322.3833192938
 20
166.1799120456
 10
322.3749150389
 20
166.2141535171
 10
322.3668162578
 20
166.2483998779
 10
322.3590154999
 20
166.2826506626
 10
322.3516543263
 20
166.316294225
 10
322.3445986265
 20
166.3499426767
 10
322.3378334993
 20
166.3835955523
 10
322.3313738459
 20
166.4172533173
 10
322.3251079076
 20
166.4515278507
 10
322.3191623443
 20
166.4858072736
 10
322.313537156
 20
166.5200918187
 10
322.3082397931
 20
166.5543812532
 10
322.3032628053
 20
166.5886760429
 10
322.2986955994
 20
166.6223633774
 10
322.2944487685
 20
166.6560558342
 10
322.2905223125
 20
166.6897534132
 10
322.2869162315
 20
166.7234561146
 10
322.2835709208
 20
166.7578519527
 10
322.2805757874
 20
166.7922533788
 10
322.2779233807
 20
166.82666016
 10
322.2756137007
 20
166.861072762
 10
322.273654198
 20
166.8954909519
 10
322.2720448726
 20
166.9299147297
 10
322.2707931751
 20
166.9643443283
 10
322.2699661606
 20
166.9955126681
 10
322.2694297188
 20
167.0266856645
 10
322.2691913002
 20
167.0578635503
 10
322.2692509049
 20
167.0890463256
 10
322.2696159833
 20
167.1202342231
 10
322.2702567333
 20
167.1508697299
 10
322.271202957
 20
167.1815102427
 10
322.2724323028
 20
167.2121555284
 10
322.2739596718
 20
167.24280582
 10
322.2758297676
 20
167.2740867334
 10
322.2780053371
 20
167.305372769
 10
322.2805012816
 20
167.3366640434
 10
322.2833026999
 20
167.3679605564
 10
322.2864244932
 20
167.3992624246
 10
322.2898517602
 20
167.430569415
 10
322.2935919517
 20
167.4618816441
 10
322.2976301664
 20
167.4931989955
 10
322.3019738549
 20
167.5245214692
 10
322.3066230172
 20
167.5558490651
 10
322.3115627521
 20
167.5871816669
 10
322.3168005103
 20
167.618519391
 10
322.3223288411
 20
167.6498620045
 10
322.3281477445
 20
167.6812097402
 10
322.3348830694
 20
167.7156978958
 10
322.3419611209
 20
167.7501919884
 10
322.3493818992
 20
167.7846919019
 10
322.3571379536
 20
167.8191978689
 10
322.3652218336
 20
167.8537095404
 10
322.3741699809
 20
167.8903192487
 10
322.383475756
 20
167.9269353599
 10
322.3931540602
 20
167.9635578739
 10
322.4031899923
 20
168.0001867907
 10
322.4135835522
 20
168.0368221104
 10
322.4243272894
 20
168.0734636001
 10
322.434780454
 20
168.1080170647
 10
322.4455316418
 20
168.1425760007
 10
322.456595754
 20
168.1771404664
 10
322.4679504388
 20
168.2117102873
 10
322.4796105975
 20
168.2462855214
 10
322.4915538782
 20
168.2808661107
 10
322.5037951821
 20
168.3154519969
 10
322.5163196081
 20
168.35004318
 10
322.5291271561
 20
168.3846395435
 10
322.5422103756
 20
168.4192411457
 10
322.5553308481
 20
168.4532298795
 10
322.5687195414
 20
168.4872235027
 10
322.5823615545
 20
168.5212220154
 10
322.5962643379
 20
168.5552254175
 10
322.6115678304
 20
168.5919507845
 10
322.627154445
 20
168.6286816811
 10
322.6430316323
 20
168.6654181367
 10
322.6591919416
 20
168.7021600637
 10
322.675635373
 20
168.7389074331
 10
322.6923544758
 20
168.7756601868
 10
322.7124039882
 20
168.8189827809
 10
322.7328260296
 20
168.8623127238
 10
322.7536131495
 20
168.905649928
 10
322.7747578972
 20
168.9489943355
 10
322.7966924065
 20
168.9932306517
 10
322.8189919942
 20
169.0374742947
 10
322.8416417592
 20
169.0817251828
 10
322.8646417015
 20
169.1259832359
 10
322.88797692
 20
169.1702483703
 10
322.911639964
 20
169.2145205133
 10
322.9356308335
 20
169.2587995758
 10
322.9599346274
 20
169.3030854776
 10
322.9845513457
 20
169.3473781315
 10
323.0094735378
 20
169.3916774793
 10
323.0346863025
 20
169.4359834045
 10
323.0601970905
 20
169.4802958491
 10
323.0859835499
 20
169.5246147255
 10
323.1120456808
 20
169.5689399466
 10
323.1410284394
 20
169.6177049279
 10
323.1703241223
 20
169.6664774181
 10
323.1999327296
 20
169.7152573006
 10
323.2298319095
 20
169.7640444008
 10
323.2600216621
 20
169.8128386606
 10
323.2928638214
 20
169.8654239853
 10
323.326018905
 20
169.9180174009
 10
323.3594720119
 20
169.9706187328
 10
323.3932156914
 20
170.0232278062
 10
323.4272350424
 20
170.0758445049
 10
323.4615226143
 20
170.1284687706
 10
323.502262389
 20
170.1904996271
 10
323.5433299893
 20
170.2525404953
 10
323.5847105139
 20
170.3145911424
 10
323.6263965124
 20
170.3766514519
 10
323.676375007
 20
170.4505449133
 10
323.7267185801
 20
170.5244511804
 10
323.7773899787
 20
170.5983700203
 10
323.8283594006
 20
170.6723009674
 10
323.8795895928
 20
170.7462436725
 10
323.9310582035
 20
170.8201977862
 10
323.993084287
 20
170.9089572514
 10
324.0553413385
 20
170.9977318505
 10
324.1177772039
 20
171.0865210016
 10
324.1803397292
 20
171.1753242389
 10
324.2429693097
 20
171.2641405147
 10
324.325000202
 20
171.3804668952
 10
324.4069267863
 20
171.4968132992
 10
324.4886298531
 20
171.6131783296
 10
324.5404486411
 20
171.687238032
 10
324.5920960658
 20
171.7613042537
 10
324.6435423249
 20
171.8353767619
 10
324.6947427147
 20
171.9094553236
 10
324.7456748837
 20
171.9835392405
 10
324.7963090294
 20
172.0576282796
 10
324.8358641618
 20
172.1158445552
 10
324.8751883262
 20
172.1740636248
 10
324.9142815226
 20
172.2322852556
 10
324.9531288498
 20
172.2905092146
 10
324.9917005056
 20
172.3487352692
 10
325.0299890393
 20
172.406963652
 10
325.0679795497
 20
172.4651936647
 10
325.1056571358
 20
172.5234253071
 10
325.1430068963
 20
172.5816585794
 10
325.1800064796
 20
172.6398932487
 10
325.216648435
 20
172.6981288493
 10
325.2529178613
 20
172.756365614
 10
325.28113321
 20
172.8021233548
 10
325.3091101402
 20
172.847881794
 10
325.3368188494
 20
172.8936402332
 10
325.3642667883
 20
172.9393991381
 10
325.3914465063
 20
172.985158043
 10
325.4183431023
 20
173.0309169479
 10
325.4472960585
 20
173.0807268732
 10
325.4758988374
 20
173.1305367984
 10
325.5041439885
 20
173.180346258
 10
325.5320166105
 20
173.2301552519
 10
325.5595167035
 20
173.2799637802
 10
325.5808477157
 20
173.3190984205
 10
325.6019328588
 20
173.358232595
 10
325.6227721327
 20
173.3973667696
 10
325.6433506363
 20
173.4365000129
 10
325.6636758202
 20
173.4756327905
 10
325.6837402337
 20
173.5147646368
 10
325.7035364264
 20
173.5538960174
 10
325.7230569476
 20
173.5930264667
 10
325.7422943467
 20
173.6321564503
 10
325.7612560743
 20
173.671285037
 10
325.7795994037
 20
173.7097142004
 10
325.7976596111
 20
173.7481428981
 10
325.8154366964
 20
173.7865697332
 10
325.832923209
 20
173.8249961026
 10
325.8504246229
 20
173.864119567
 10
325.8676131123
 20
173.9032421001
 10
325.8844886774
 20
173.9423632361
 10
325.9010438674
 20
173.9814834409
 10
325.9172786826
 20
174.020601783
 10
325.9329025501
 20
174.0590202362
 10
325.948198592
 20
174.097437758
 10
325.963174259
 20
174.1358534172
 10
325.9778146499
 20
174.1742672138
 10
325.9924103373
 20
174.213463787
 10
326.0066558474
 20
174.2526584976
 10
326.0205437296
 20
174.2918513455
 10
326.0340590828
 20
174.3310427964
 10
326.0472168082
 20
174.370231919
 10
326.0599945539
 20
174.409419179
 10
326.0723997706
 20
174.4486045763
 10
326.0824208015
 20
174.4811864309
 10
326.0921736115
 20
174.5137664229
 10
326.1016582006
 20
174.5463454835
 10
326.1108745688
 20
174.5789226815
 10
326.1198152655
 20
174.6114984825
 10
326.1284728402
 20
174.6440724209
 10
326.1363779062
 20
174.6747837141
 10
326.144037103
 20
174.7054936104
 10
326.1514429801
 20
174.7362021096
 10
326.1585880869
 20
174.7669087462
 10
326.1654724234
 20
174.7976139859
 10
326.1728559488
 20
174.8318815343
 10
326.179904198
 20
174.8661472202
 10
326.1866320723
 20
174.9004110433
 10
326.1930246705
 20
174.9346725382
 10
326.1990968936
 20
174.9689326361
 10
326.2048412913
 20
175.003191337
 10
326.210265314
 20
175.0374481753
 10
326.2153689617
 20
175.0717040822
 10
326.2201522344
 20
175.1059581265
 10
326.2246225828
 20
175.1402117051
 10
326.2287725562
 20
175.1744638868
 10
326.2326170557
 20
175.2087156028
 10
326.2361411804
 20
175.2429659218
 10
326.2393598312
 20
175.2772162408
 10
326.2422655576
 20
175.3114656285
 10
326.2448658102
 20
175.3457145505
 10
326.2472648972
 20
175.3815942183
 10
326.249328708
 20
175.4174738862
 10
326.2510572427
 20
175.4533530884
 10
326.2524654025
 20
175.4892322906
 10
326.2535382861
 20
175.5251119584
 10
326.2542907947
 20
175.5609920919
 10
326.2547080272
 20
175.5962072611
 10
326.2548197859
 20
175.6314233616
 10
326.2546260708
 20
175.6666399278
 10
326.2541194313
 20
175.7018574253
 10
326.2533147686
 20
175.7370758541
 10
326.2522046321
 20
175.7722952143
 10
326.2507964724
 20
175.8075159714
 10
326.2488965743
 20
175.8462603875
 10
326.2466390484
 20
175.8850062005
 10
326.2440313452
 20
175.9237543419
 10
326.2410585636
 20
175.9625043459
 10
326.2377430552
 20
176.0012571439
 10
326.234069919
 20
176.0400118046
 10
326.230054056
 20
176.0787697248
 10
326.2256880158
 20
176.1175299734
 10
326.2209866994
 20
176.1562934816
 10
326.2159426564
 20
176.1950597838
 10
326.2106601947
 20
176.2331373729
 10
326.2050499075
 20
176.2712182217
 10
326.199126696
 20
176.3093027957
 10
326.1928756588
 20
176.3473906294
  0
ARC
  5
1F2
330
1F
100
AcDbEntity
  8
0
  6
Continuous
 62
     7
370
    18
100
AcDbCircle
 10
103.9676889952
 20
57.3385019758
 30
0.0
 40
161.2393676094381
100
AcDbArc
 50
71.7021669732
 51
72.4491200007
  0
LINE
  5
1F3
330
1F
100
AcDbEntity
  8
0
  6
Continuous
 62
     7
370
    25
100
AcDbLine
 10
227.9898443126
 20
152.0973899141
 30
0.0
 11
227.9898443126
 21
186.0973917619
 31
0.0
  0
LINE
  5
1F4
330
1F
100
AcDbEntity
  8
0
  6
Continuous
 62
     7
370
    25
100
AcDbLine
 10
277.4898421818
 20
171.7133201864
 30
0.0
 11
277.4898421818
 21
160.5919048861
 31
0.0
  0
LINE
  5
1F5
330
1F
100
AcDbEntity
  8
0
  6
Continuous
 62
     7
370
    25
100
AcDbLine
 10
277.4898421818
 20
177.6028767899
 30
0.0
 11
277.4898421818
 21
171.7133201864
 31
0.0
  0
SPLINE
  5
1F6
330
1F
100
AcDbEntity
  8
0
  6
Continuous
 62
     7
370
    25
100
AcDbSpline
210
0.0
220
0.0
230
1.0
 70
    11
 71
     3
 72
    27
 73
    23
 74
     0
 42
0.000000001
 43
0.00000001
 40
0.0
 40
0.0
 40
0.0
 40
0.0
 40
0.0306518079970319
 40
0.061316414502746
 40
0.0921475200236699
 40
0.1539209694786385
 40
0.2167782925318708
 40
0.2805704184311953
 40
0.3444129453371679
 40
0.4073843600449252
 40
0.4691880016846658
 40
0.4998438641770543
 40
0.5306598649684658
 40
0.5614752979855874
 40
0.5921409640636724
 40
0.653966097827254
 40
0.7169131754883961
 40
0.7807371080266701
 40
0.8445420070707575
 40
0.9074134575984849
 40
0.9691745721684186
 40
1.0
 40
1.0
 40
1.0
 40
1.0
 10
202.216592883436
 20
165.7966632601082
 30
0.0
 10
202.0080804738302
 20
165.7659203700519
 30
0.0
 10
201.5909685913077
 20
165.7044217533996
 30
0.0
 10
200.9568407121791
 20
165.7772501349767
 30
0.0
 10
200.1476483236263
 20
166.0326736959857
 30
0.0
 10
199.251267610412
 20
166.6655250353425
 30
0.0
 10
198.5446480066902
 20
167.7830234365038
 30
0.0
 10
198.296260582436
 20
169.0960104046914
 30
0.0
 10
198.543702133806
 20
170.4099035576001
 30
0.0
 10
199.2508015546233
 20
171.5292972441804
 30
0.0
 10
200.1468638630596
 20
172.160784814336
 30
0.0
 10
200.9564330131206
 20
172.4188448712426
 30
0.0
 10
201.5900094775508
 20
172.4849546777145
 30
0.0
 10
202.2236455684728
 20
172.4187702362402
 30
0.0
 10
203.0333849609184
 20
172.1605314101251
 30
0.0
 10
203.9293521306664
 20
171.5288141697789
 30
0.0
 10
204.6361372773846
 20
170.4093235252877
 30
0.0
 10
204.8833465115432
 20
169.0960114284004
 30
0.0
 10
204.6352148576855
 20
167.7815840115688
 30
0.0
 10
203.9271158286161
 20
166.6691427668022
 30
0.0
 10
203.0344810678266
 20
166.0210406497492
 30
0.0
 10
202.4208822498128
 20
165.8527074916228
 30
0.0
 10
202.216592883436
 20
165.7966632601082
 30
0.0
  0
SPLINE
  5
1F7
330
1F
100
AcDbEntity
  8
0
  6
Continuous
 62
     7
370
    25
100
AcDbSpline
210
0.0
220
0.0
230
1.0
 70
    11
 71
     3
 72
    31
 73
    27
 74
     0
 42
0.000000001
 43
0.00000001
 40
0.0
 40
0.0
 40
0.0
 40
0.0
 40
0.0313583959137274
 40
0.0627038631745408
 40
0.0941109090346326
 40
0.1563562206039391
 40
0.2185907940833872
 40
0.2499769718873502
 40
0.2812751043123148
 40
0.3127359437436171
 40
0.343977218921374
 40
0.4062846976322341
 40
0.4685938797883862
 40
0.4998375646438187
 40
0.5313501641147366
 40
0.5628632818214261
 40
0.5940971275492408
 40
0.6563853036038557
 40
0.7187174100231217
 40
0.7499766861858866
 40
0.7814380692454664
 40
0.812732466778872
 40
0.8441096562303564
 40
0.9063297778982716
 40
0.9685872712886364
 40
1.0
 40
1.0
 40
1.0
 40
1.0
 10
201.1016060465258
 20
166.6455297935963
 30
0.0
 10
201.2640637814793
 20
166.6226804997482
 30
0.0
 10
201.5889122722054
 20
166.5769913325144
 30
0.0
 10
202.0816626639902
 20
166.63089255787
 30
0.0
 10
202.7085363786927
 20
166.819299739157
 30
0.0
 10
203.4038490660683
 20
167.2835119672975
 30
0.0
 10
203.8671389285448
 20
167.9782706704517
 30
0.0
 10
204.0572722681802
 20
168.6051037614016
 30
0.0
 10
204.1060621967616
 20
169.0969014316064
 30
0.0
 10
204.0576123486384
 20
169.5880239292086
 30
0.0
 10
203.8676645534846
 20
170.2153237014471
 30
0.0
 10
203.4048238729943
 20
170.9106886131602
 30
0.0
 10
202.7098777332557
 20
171.3741825957635
 30
0.0
 10
202.0824702496464
 20
171.5647901304252
 30
0.0
 10
201.5899730050771
 20
171.6137483679355
 30
0.0
 10
201.0975219489216
 20
171.5648456394958
 30
0.0
 10
200.4702436833258
 20
171.3743667067206
 30
0.0
 10
199.775234298802
 20
170.9110625206347
 30
0.0
 10
199.3121639858233
 20
170.2156820731236
 30
0.0
 10
199.1220991731811
 20
169.5881847959734
 30
0.0
 10
199.0736240445002
 20
169.0969628429302
 30
0.0
 10
199.1224109654669
 20
168.6053150318636
 30
0.0
 10
199.3123568014277
 20
167.9781735990735
 30
0.0
 10
199.7762729724015
 20
167.2866821362618
 30
0.0
 10
200.4688636903923
 20
166.8110250876496
 30
0.0
 10
200.9427021843431
 20
166.6870914831895
 30
0.0
 10
201.1016060465258
 20
166.6455297935963
 30
0.0
  0
LINE
  5
1F8
330
1F
100
AcDbEntity
  8
0
  6
Continuous
 62
     7
370
    25
100
AcDbLine
 10
194.5898451709
 20
153.2988258377
 30
0.0
 11
194.5898451709
 21
150.9973899201
 31
0.0
  0
LINE
  5
1F9
330
1F
100
AcDbEntity
  8
0
  6
Continuous
 62
     7
370
    25
100
AcDbLine
 10
194.5898451709
 20
153.2988258377
 30
0.0
 11
194.5898451709
 21
153.5488263443
 31
0.0
  0
LINE
  5
1FA
330
1F
100
AcDbEntity
  8
0
  6
Continuous
 62
     7
370
    25
100
AcDbLine
 10
194.5898451709
 20
184.6459553316
 30
0.0
 11
194.5898451709
 21
153.5488263443
 31
0.0
  0
LINE
  5
1FB
330
1F
100
AcDbEntity
  8
0
  6
Continuous
 62
     7
370
    25
100
AcDbLine
 10
194.5898451709
 20
184.6459553316
 30
0.0
 11
194.5898451709
 21
184.8959558383
 31
0.0
  0
LINE
  5
1FC
330
1F
100
AcDbEntity
  8
0
  6
Continuous
 62
     7
370
    25
100
AcDbLine
 10
194.5898451709
 20
187.1973917559
 30
0.0
 11
194.5898451709
 21
184.8959558383
 31
0.0
  0
LINE
  5
1FD
330
1F
100
AcDbEntity
  8
0
  6
Continuous
 62
     7
370
    25
100
AcDbLine
 10
227.4898442307
 20
151.5973907635
 30
0.0
 11
227.4898442307
 21
186.5973909125
 31
0.0
  0
LINE
  5
1FE
330
1F
100
AcDbEntity
  8
0
  6
Continuous
 62
     7
370
    25
100
AcDbLine
 10
157.5898428315
 20
190.0973905549
 30
0.0
 11
157.5898428315
 21
148.0973911211
 31
0.0
  0
LINE
  5
1FF
330
1F
100
AcDbEntity
  8
0
  6
Continuous
 62
     7
370
    25
100
AcDbLine
 10
141.5898402089
 20
176.9204762504
 30
0.0
 11
141.5898402089
 21
177.170476757
 31
0.0
  0
LWPOLYLINE
  5
200
330
1F
100
AcDbEntity
  8
0
  6
Continuous
 62
     7
370
    25
100
AcDbPolyline
 90
        9
 70
   128
 43
0.0
 10
141.5898402089
 20
177.170476757
 10
141.6378815525
 20
177.4143389166
 10
141.7801429385
 20
177.6488310397
 10
142.0111705416
 20
177.8649388552
 10
142.3220758193
 20
178.0543596223
 10
142.700915491
 20
178.2098131925
 10
143.133131122
 20
178.3253260628
 10
143.6021153682
 20
178.396457687
 10
144.0898452753
 20
178.4204764962
  0
LINE
  5
201
330
1F
100
AcDbEntity
  8
0
  6
Continuous
 62
     7
370
    25
100
AcDbLine
 10
144.0898452753
 20
178.4204764962
 30
0.0
 11
144.0898452753
 21
176.9204762504
 31
0.0
  0
LINE
  5
202
330
1F
100
AcDbEntity
  8
0
  6
Continuous
 62
     7
370
    25
100
AcDbLine
 10
141.5898402089
 20
176.9204762504
 30
0.0
 11
144.0898452753
 21
176.9204762504
 31
0.0
  0
LINE
  5
203
330
1F
100
AcDbEntity
  8
0
  6
Continuous
 62
     7
370
    25
100
AcDbLine
 10
152.5898401493
 20
176.9204762504
 30
0.0
 11
144.0898452753
 21
176.9204762504
 31
0.0
  0
LINE
  5
204
330
1F
100
AcDbEntity
  8
0
  6
Continuous
 62
     7
370
    25
100
AcDbLine
 10
144.0898452753
 20
178.4204764962
 30
0.0
 11
152.5898401493
 21
178.4204764962
 31
0.0
  0
LINE
  5
205
330
1F
100
AcDbEntity
  8
0
  6
Continuous
 62
     7
370
    25
100
AcDbLine
 10
144.0898452753
 20
161.2743054256
 30
0.0
 11
152.5898401493
 21
161.2743054256
 31
0.0
  0
LINE
  5
206
330
1F
100
AcDbEntity
  8
0
  6
Continuous
 62
     7
370
    25
100
AcDbLine
 10
144.0898452753
 20
176.9204762504
 30
0.0
 11
144.0898452753
 21
161.2743054256
 31
0.0
  0
LINE
  5
207
330
1F
100
AcDbEntity
  8
0
  6
Continuous
 62
     7
370
    25
100
AcDbLine
 10
141.5898402089
 20
170.458456615
 30
0.0
 11
141.5898402089
 21
176.9204762504
 31
0.0
  0
LINE
  5
208
330
1F
100
AcDbEntity
  8
0
  6
Continuous
 62
     7
370
    25
100
AcDbLine
 10
141.5898402089
 20
161.2743054256
 30
0.0
 11
144.0898452753
 21
161.2743054256
 31
0.0
  0
LINE
  5
209
330
1F
100
AcDbEntity
  8
0
  6
Continuous
 62
     7
370
    25
100
AcDbLine
 10
141.5898402089
 20
161.2743054256
 30
0.0
 11
141.5898402089
 21
167.736325061
 31
0.0
  0
LINE
  5
20A
330
1F
100
AcDbEntity
  8
0
  6
Continuous
 62
     7
370
    25
100
AcDbLine
 10
141.5898402089
 20
167.736325061
 30
0.0
 11
141.5898402089
 21
170.458456615
 31
0.0
  0
LINE
  5
20B
330
1F
100
AcDbEntity
  8
0
  6
Continuous
 62
     7
370
    25
100
AcDbLine
 10
152.5898401493
 20
159.7743051797
 30
0.0
 11
144.0898452753
 21
159.7743051797
 31
0.0
  0
LINE
  5
20C
330
1F
100
AcDbEntity
  8
0
  6
Continuous
 62
     7
370
    25
100
AcDbLine
 10
144.0898452753
 20
161.2743054256
 30
0.0
 11
144.0898452753
 21
159.7743051797
 31
0.0
  0
LINE
  5
20D
330
1F
100
AcDbEntity
  8
0
  6
Continuous
 62
     7
370
    25
100
AcDbLine
 10
141.5898402089
 20
161.024304919
 30
0.0
 11
141.5898402089
 21
161.2743054256
 31
0.0
  0
LWPOLYLINE
  5
20E
330
1F
100
AcDbEntity
  8
0
  6
Continuous
 62
     7
370
    25
100
AcDbPolyline
 90
        9
 70
   128
 43
0.0
 10
141.5898402089
 20
161.024304919
 10
141.6378815525
 20
160.7804427594
 10
141.7801429385
 20
160.5459506363
 10
142.0111705416
 20
160.3298428208
 10
142.3220758193
 20
160.1404220537
 10
142.700915491
 20
159.9849684835
 10
143.133131122
 20
159.8694556132
 10
143.6021153682
 20
159.7983239889
 10
144.0898452753
 20
159.7743051797
  0
LINE
  5
20F
330
1F
100
AcDbEntity
  8
0
  6
Continuous
 62
     7
370
    25
100
AcDbLine
 10
144.0898452753
 20
156.4400912002
 30
0.0
 11
144.0898452753
 21
155.9204765335
 31
0.0
  0
LWPOLYLINE
  5
210
330
1F
100
AcDbEntity
  8
0
  6
Continuous
 62
     7
370
    25
100
AcDbPolyline
 90
        9
 70
   128
 43
0.0
 10
141.5898402089
 20
157.1704762727
 10
141.6378815525
 20
156.9266131819
 10
141.7801429385
 20
156.69212199
 10
142.0111705416
 20
156.4760132432
 10
142.3220758193
 20
156.2865924761
 10
142.700915491
 20
156.1311389059
 10
143.133131122
 20
156.015626967
 10
143.6021153682
 20
155.9444944114
 10
144.0898452753
 20
155.9204765335
  0
LINE
  5
211
330
1F
100
AcDbEntity
  8
0
  6
Continuous
 62
     7
370
    25
100
AcDbLine
 10
141.5898402089
 20
157.1704762727
 30
0.0
 11
141.5898402089
 21
161.024304919
 31
0.0
  0
LINE
  5
212
330
1F
100
AcDbEntity
  8
0
  6
Continuous
 62
     7
370
    25
100
AcDbLine
 10
144.0898452753
 20
159.7743051797
 30
0.0
 11
144.0898452753
 21
159.254690513
 31
0.0
  0
ARC
  5
213
330
1F
100
AcDbEntity
  8
0
  6
Continuous
 62
     7
370
    25
100
AcDbCircle
 10
144.0768967915
 20
163.9723403267
 30
0.0
 40
4.717667583443768
100
AcDbArc
 50
257.8082986406
 51
270.1572587281
  0
SPLINE
  5
214
330
1F
100
AcDbEntity
  8
0
  6
Continuous
 62
     7
370
    25
100
AcDbSpline
210
0.0
220
0.0
230
1.0
 70
     8
 71
     3
 72
    13
 73
     9
 74
     0
 42
0.000000001
 43
0.00000001
 40
0.0
 40
0.0
 40
0.0
 40
0.0
 40
0.0164398280392044
 40
0.0956062076057372
 40
0.180847360985273
 40
0.3068204395809617
 40
0.5339830426753822
 40
1.0
 40
1.0
 40
1.0
 40
1.0
 10
142.5482083910387
 20
159.2608400359958
 30
0.0
 10
142.5482723172379
 20
159.2641911335542
 30
0.0
 10
142.5486440815564
 20
159.2836795204225
 30
0.0
 10
142.5570974902719
 20
159.3206244605181
 30
0.0
 10
142.5944529576035
 20
159.3691942135667
 30
0.0
 10
142.6793721661413
 20
159.4062132527632
 30
0.0
 10
142.8488350803084
 20
159.4098377952694
 30
0.0
 10
142.9874292202427
 20
159.380677105924
 30
0.0
 10
143.0806045287531
 20
159.3610726967663
 30
0.0
  0
LINE
  5
215
330
1F
100
AcDbEntity
  8
0
  6
Continuous
 62
     7
370
    25
100
AcDbLine
 10
142.548208391
 20
158.6546226144
 30
0.0
 11
142.548208391
 21
159.260840036
 31
0.0
  0
SPLINE
  5
216
330
1F
100
AcDbEntity
  8
0
  6
Continuous
 62
     7
370
    25
100
AcDbSpline
210
0.0
220
0.0
230
1.0
 70
     8
 71
     3
 72
    13
 73
     9
 74
     0
 42
0.000000001
 43
0.00000001
 40
0.0
 40
0.0
 40
0.0
 40
0.0
 40
0.4190574281519553
 40
0.5848927858504788
 40
0.7544120768612952
 40
0.8679100923553043
 40
0.9589873086982252
 40
1.0
 40
1.0
 40
1.0
 40
1.0
 10
143.0806045287531
 20
158.235239677152
 30
0.0
 10
142.9827557193082
 20
158.2627155188893
 30
0.0
 10
142.8461847891596
 20
158.3010644909816
 30
0.0
 10
142.6947082853651
 20
158.4027505066752
 30
0.0
 10
142.6173824990933
 20
158.4793830196678
 30
0.0
 10
142.5700082254734
 20
158.5563090712476
 30
0.0
 10
142.5504776391774
 20
158.6130282463517
 30
0.0
 10
142.5487460373477
 20
158.6447677827196
 30
0.0
 10
142.5482083910387
 20
158.6546226144046
 30
0.0
  0
ARC
  5
217
330
1F
100
AcDbEntity
  8
0
  6
Continuous
 62
     7
370
    25
100
AcDbCircle
 10
144.0768967915
 20
162.8465073071
 30
0.0
 40
4.717667583443768
100
AcDbArc
 50
257.8082986406
 51
270.1572587281
  0
LINE
  5
218
330
1F
100
AcDbEntity
  8
0
  6
Continuous
 62
     7
370
    25
100
AcDbLine
 10
144.0898452753
 20
158.1288574934
 30
0.0
 11
144.0898452753
 21
157.5659242198
 31
0.0
  0
ARC
  5
219
330
1F
100
AcDbEntity
  8
0
  6
Continuous
 62
     7
370
    25
100
AcDbCircle
 10
144.0769113274
 20
162.283671565
 30
0.0
 40
4.717765074663347
100
AcDbArc
 50
257.8083738431
 51
270.1570789431
  0
SPLINE
  5
21A
330
1F
100
AcDbEntity
  8
0
  6
Continuous
 62
     7
370
    25
100
AcDbSpline
210
0.0
220
0.0
230
1.0
 70
     8
 71
     3
 72
    13
 73
     9
 74
     0
 42
0.000000001
 43
0.00000001
 40
0.0
 40
0.0
 40
0.0
 40
0.0
 40
0.0164398280392044
 40
0.0956062076057372
 40
0.180847360985273
 40
0.3068204395809617
 40
0.5339830426753822
 40
1.0
 40
1.0
 40
1.0
 40
1.0
 10
142.5482083910387
 20
157.5720746740907
 30
0.0
 10
142.5482723172379
 20
157.5754257716491
 30
0.0
 10
142.5486440815564
 20
157.5949141585174
 30
0.0
 10
142.5570974902719
 20
157.631859098613
 30
0.0
 10
142.5944529576035
 20
157.6804288516616
 30
0.0
 10
142.6793721661413
 20
157.7174478908581
 30
0.0
 10
142.8488350803084
 20
157.7210724333643
 30
0.0
 10
142.9874292202427
 20
157.6919117440189
 30
0.0
 10
143.0806045287531
 20
157.6723073348612
 30
0.0
  0
LINE
  5
21B
330
1F
100
AcDbEntity
  8
0
  6
Continuous
 62
     7
370
    25
100
AcDbLine
 10
142.548208391
 20
156.9658563212
 30
0.0
 11
142.548208391
 21
157.5720746741
 31
0.0
  0
SPLINE
  5
21C
330
1F
100
AcDbEntity
  8
0
  6
Continuous
 62
     7
370
    25
100
AcDbSpline
210
0.0
220
0.0
230
1.0
 70
     8
 71
     3
 72
    13
 73
     9
 74
     0
 42
0.000000001
 43
0.00000001
 40
0.0
 40
0.0
 40
0.0
 40
0.0
 40
0.4190578920256314
 40
0.5848934332948348
 40
0.754412911954244
 40
0.8679099461389936
 40
0.9589872632994169
 40
1.0
 40
1.0
 40
1.0
 40
1.0
 10
143.0806045287531
 20
156.5464743152469
 30
0.0
 10
142.9827557385421
 20
156.5739501683951
 30
0.0
 10
142.8461848352389
 20
156.6122991564141
 30
0.0
 10
142.6947082210843
 20
156.713985106634
 30
0.0
 10
142.6173829087312
 20
156.7906175986654
 30
0.0
 10
142.5700080076919
 20
156.8675429557723
 30
0.0
 10
142.5504776506707
 20
156.9242619600244
 30
0.0
 10
142.5487460400708
 20
156.9560014911268
 30
0.0
 10
142.5482083910387
 20
156.9658563211769
 30
0.0
  0
ARC
  5
21D
330
1F
100
AcDbEntity
  8
0
  6
Continuous
 62
     7
370
    25
100
AcDbCircle
 10
144.0769113274
 20
161.1578385453
 30
0.0
 40
4.717765074663347
100
AcDbArc
 50
257.8083738431
 51
270.1570789431
  0
LINE
  5
21E
330
1F
100
AcDbEntity
  8
0
  6
Continuous
 62
     7
370
    25
100
AcDbLine
 10
144.0898452753
 20
159.254690513
 30
0.0
 11
152.5898401493
 21
159.254690513
 31
0.0
  0
LINE
  5
21F
330
1F
100
AcDbEntity
  8
0
  6
Continuous
 62
     7
370
    25
100
AcDbLine
 10
144.0898452753
 20
178.9400911629
 30
0.0
 11
144.0898452753
 21
178.4204764962
 31
0.0
  0
LINE
  5
220
330
1F
100
AcDbEntity
  8
0
  6
Continuous
 62
     7
370
    25
100
AcDbLine
 10
141.5898402089
 20
177.170476757
 30
0.0
 11
141.5898402089
 21
181.0243054033
 31
0.0
  0
LWPOLYLINE
  5
221
330
1F
100
AcDbEntity
  8
0
  6
Continuous
 62
     7
370
    25
100
AcDbPolyline
 90
        9
 70
   128
 43
0.0
 10
141.5898402089
 20
181.0243054033
 10
141.6378815525
 20
181.2681684941
 10
141.7801429385
 20
181.5026596859
 10
142.0111705416
 20
181.7187684328
 10
142.3220758193
 20
181.9081891999
 10
142.700915491
 20
182.0636427701
 10
143.133131122
 20
182.179154709
 10
143.6021153682
 20
182.2502872646
 10
144.0898452753
 20
182.2743051425
  0
LINE
  5
222
330
1F
100
AcDbEntity
  8
0
  6
Continuous
 62
     7
370
    25
100
AcDbLine
 10
144.0898452753
 20
182.2743051425
 30
0.0
 11
144.0898452753
 21
181.7546904758
 31
0.0
  0
ARC
  5
223
330
1F
100
AcDbEntity
  8
0
  6
Continuous
 62
     7
370
    25
100
AcDbCircle
 10
144.0769113274
 20
177.0369431306
 30
0.0
 40
4.717765074663318
100
AcDbArc
 50
89.8429210569
 51
102.1916261569
  0
SPLINE
  5
224
330
1F
100
AcDbEntity
  8
0
  6
Continuous
 62
     7
370
    25
100
AcDbSpline
210
0.0
220
0.0
230
1.0
 70
     8
 71
     3
 72
    13
 73
     9
 74
     0
 42
0.000000001
 43
0.00000001
 40
0.0
 40
0.0
 40
0.0
 40
0.0
 40
0.0143069830755121
 40
0.0936065211097658
 40
0.1945952903139965
 40
0.3458066423389768
 40
0.5839838700245321
 40
1.0
 40
1.0
 40
1.0
 40
1.0
 10
142.5482083910387
 20
181.2289253547996
 30
0.0
 10
142.5482767791311
 20
181.232360337269
 30
0.0
 10
142.548724222969
 20
181.2548344505979
 30
0.0
 10
142.5592439943682
 20
181.3010700002991
 30
0.0
 10
142.5948815413429
 20
181.3728910151438
 30
0.0
 10
142.6714776401479
 20
181.4637111968225
 30
0.0
 10
142.8311352234237
 20
181.578115563928
 30
0.0
 10
142.9836298185214
 20
181.6210221235879
 30
0.0
 10
143.0806045287531
 20
181.6483073607296
 30
0.0
  0
LINE
  5
225
330
1F
100
AcDbEntity
  8
0
  6
Continuous
 62
     7
370
    25
100
AcDbLine
 10
142.548208391
 20
180.6227070019
 30
0.0
 11
142.548208391
 21
181.2289253548
 31
0.0
  0
SPLINE
  5
226
330
1F
100
AcDbEntity
  8
0
  6
Continuous
 62
     7
370
    25
100
AcDbSpline
210
0.0
220
0.0
230
1.0
 70
     8
 71
     3
 72
    13
 73
     9
 74
     0
 42
0.000000001
 43
0.00000001
 40
0.0
 40
0.0
 40
0.0
 40
0.0
 40
0.4690961584773252
 40
0.6310753818102873
 40
0.7776170421303893
 40
0.8708483744106468
 40
0.9548641296882036
 40
1.0
 40
1.0
 40
1.0
 40
1.0
 10
143.0806045287531
 20
180.5224743411154
 30
0.0
 10
142.9864795816228
 20
180.5024297848707
 30
0.0
 10
142.8598532260777
 20
180.4754638296891
 30
0.0
 10
142.700810806138
 20
180.4774527470427
 30
0.0
 10
142.6192697179345
 20
180.4987417476288
 30
0.0
 10
142.5677085893313
 20
180.5434461012689
 30
0.0
 10
142.549955804813
 20
180.5871261963109
 30
0.0
 10
142.5486609251754
 20
180.6134925105207
 30
0.0
 10
142.5482083910387
 20
180.6227070018858
 30
0.0
  0
ARC
  5
227
330
1F
100
AcDbEntity
  8
0
  6
Continuous
 62
     7
370
    25
100
AcDbCircle
 10
144.0769113274
 20
175.911110111
 30
0.0
 40
4.71776507466332
100
AcDbArc
 50
89.8429210569
 51
102.1916261569
  0
LINE
  5
228
330
1F
100
AcDbEntity
  8
0
  6
Continuous
 62
     7
370
    25
100
AcDbLine
 10
144.0898452753
 20
180.6288574562
 30
0.0
 11
144.0898452753
 21
180.0659241826
 31
0.0
  0
ARC
  5
229
330
1F
100
AcDbEntity
  8
0
  6
Continuous
 62
     7
370
    25
100
AcDbCircle
 10
144.0768967915
 20
175.3482743689
 30
0.0
 40
4.717667583443768
100
AcDbArc
 50
89.8427412719
 51
102.1917013594
  0
SPLINE
  5
22A
330
1F
100
AcDbEntity
  8
0
  6
Continuous
 62
     7
370
    25
100
AcDbSpline
210
0.0
220
0.0
230
1.0
 70
     8
 71
     3
 72
    13
 73
     9
 74
     0
 42
0.000000001
 43
0.00000001
 40
0.0
 40
0.0
 40
0.0
 40
0.0
 40
0.0143082605017918
 40
0.0936077149783955
 40
0.194596377771108
 40
0.3458065691492518
 40
0.5839843083792952
 40
1.0
 40
1.0
 40
1.0
 40
1.0
 10
142.5482083910387
 20
179.540159061572
 30
0.0
 10
142.5482767723004
 20
179.5435943548862
 30
0.0
 10
142.5487241372088
 20
179.566068781976
 30
0.0
 10
142.5592440248288
 20
179.6123046190257
 30
0.0
 10
142.5948813027116
 20
179.6841255464469
 30
0.0
 10
142.6714783223605
 20
179.7749448389675
 30
0.0
 10
142.8311346118606
 20
179.8893506571447
 30
0.0
 10
142.9836296498856
 20
179.9322569580399
 30
0.0
 10
143.0806045287531
 20
179.9595419988245
 30
0.0
  0
LINE
  5
22B
330
1F
100
AcDbEntity
  8
0
  6
Continuous
 62
     7
370
    25
100
AcDbLine
 10
142.548208391
 20
178.93394164
 30
0.0
 11
142.548208391
 21
179.5401590616
 31
0.0
  0
SPLINE
  5
22C
330
1F
100
AcDbEntity
  8
0
  6
Continuous
 62
     7
370
    25
100
AcDbSpline
210
0.0
220
0.0
230
1.0
 70
     8
 71
     3
 72
    13
 73
     9
 74
     0
 42
0.000000001
 43
0.00000001
 40
0.0
 40
0.0
 40
0.0
 40
0.0
 40
0.4690961584773252
 40
0.6310753818102873
 40
0.7776170421303893
 40
0.8708483744106468
 40
0.9548641296882036
 40
1.0
 40
1.0
 40
1.0
 40
1.0
 10
143.0806045287531
 20
178.8337089792103
 30
0.0
 10
142.9864795816228
 20
178.8136644229656
 30
0.0
 10
142.8598532260777
 20
178.786698467784
 30
0.0
 10
142.700810806138
 20
178.7886873851376
 30
0.0
 10
142.6192697179345
 20
178.8099763857237
 30
0.0
 10
142.5677085893313
 20
178.8546807393638
 30
0.0
 10
142.549955804813
 20
178.8983608344058
 30
0.0
 10
142.5486609251754
 20
178.9247271486156
 30
0.0
 10
142.5482083910387
 20
178.9339416399807
 30
0.0
  0
ARC
  5
22D
330
1F
100
AcDbEntity
  8
0
  6
Continuous
 62
     7
370
    25
100
AcDbCircle
 10
144.0768967915
 20
174.2224413492
 30
0.0
 40
4.717667583443768
100
AcDbArc
 50
89.8427412719
 51
102.1917013594
  0
LINE
  5
22E
330
1F
100
AcDbEntity
  8
0
  6
Continuous
 62
     7
370
    25
100
AcDbLine
 10
152.5898401493
 20
178.9400911629
 30
0.0
 11
144.0898452753
 21
178.9400911629
 31
0.0
  0
ARC
  5
22F
330
1F
100
AcDbEntity
  8
0
  6
Continuous
 62
     7
370
    25
100
AcDbCircle
 10
144.0776740878
 20
163.6343194402
 30
0.0
 40
4.434549889643569
100
AcDbArc
 50
257.8081838339
 51
270.157255768
  0
ARC
  5
230
330
1F
100
AcDbEntity
  8
0
  6
Continuous
 62
     7
370
    25
100
AcDbCircle
 10
143.1106495042
 20
159.319395377
 30
0.0
 40
0.0362710426064424
100
AcDbArc
 50
267.5563133895
 51
327.2733142384
  0
ARC
  5
231
330
1F
100
AcDbEntity
  8
0
  6
Continuous
 62
     7
370
    25
100
AcDbCircle
 10
143.1100301522
 20
178.8746365253
 30
0.0
 40
0.0371986069115178
100
AcDbArc
 50
33.1824745038
 51
89.534536874
  0
ARC
  5
232
330
1F
100
AcDbEntity
  8
0
  6
Continuous
 62
     7
370
    25
100
AcDbCircle
 10
144.0776740878
 20
174.5604622358
 30
0.0
 40
4.434549889643597
100
AcDbArc
 50
89.842744232
 51
102.1918161661
  0
ARC
  5
233
330
1F
100
AcDbEntity
  8
0
  6
Continuous
 62
     7
370
    25
100
AcDbCircle
 10
142.637672406
 20
178.6914202392
 30
0.0
 40
0.2584964986438122
100
AcDbArc
 50
89.3272890385
 51
110.2485748357
  0
ARC
  5
234
330
1F
100
AcDbEntity
  8
0
  6
Continuous
 62
     7
370
    25
100
AcDbCircle
 10
142.637672406
 20
159.5033614368
 30
0.0
 40
0.2584964986438122
100
AcDbArc
 50
249.7514251643
 51
270.6727109615
  0
LINE
  5
235
330
1F
100
AcDbEntity
  8
0
  6
Continuous
 62
     7
370
    25
100
AcDbLine
 10
142.6407073491
 20
158.6386644021
 30
0.0
 11
152.5898401493
 21
158.6386644021
 31
0.0
  0
LINE
  5
236
330
1F
100
AcDbEntity
  8
0
  6
Continuous
 62
     7
370
    25
100
AcDbLine
 10
142.6407073491
 20
159.244882755
 30
0.0
 11
142.6407073491
 21
158.6386644021
 31
0.0
  0
ARC
  5
237
330
1F
100
AcDbEntity
  8
0
  6
Continuous
 62
     7
370
    25
100
AcDbCircle
 10
142.6376775314
 20
158.8971586385
 30
0.0
 40
0.2585119920647523
100
AcDbArc
 50
249.7514811123
 51
270.6715345986
  0
ARC
  5
238
330
1F
100
AcDbEntity
  8
0
  6
Continuous
 62
     7
370
    25
100
AcDbCircle
 10
142.6376775314
 20
179.2976230375
 30
0.0
 40
0.2585119920647523
100
AcDbArc
 50
89.3284654014
 51
110.2485188877
  0
LINE
  5
239
330
1F
100
AcDbEntity
  8
0
  6
Continuous
 62
     7
370
    25
100
AcDbLine
 10
142.6407073491
 20
179.5561172739
 30
0.0
 11
142.6407073491
 21
178.949898921
 31
0.0
  0
LINE
  5
23A
330
1F
100
AcDbEntity
  8
0
  6
Continuous
 62
     7
370
    25
100
AcDbLine
 10
152.5898401493
 20
179.5561172739
 30
0.0
 11
142.6407073491
 21
179.5561172739
 31
0.0
  0
LINE
  5
23B
330
1F
100
AcDbEntity
  8
0
  6
Continuous
 62
     7
370
    25
100
AcDbLine
 10
152.5898401493
 20
158.1288574934
 30
0.0
 11
144.0898452753
 21
158.1288574934
 31
0.0
  0
LINE
  5
23C
330
1F
100
AcDbEntity
  8
0
  6
Continuous
 62
     7
370
    25
100
AcDbLine
 10
144.0898452753
 20
158.1288574934
 30
0.0
 11
144.0898452753
 21
158.333760567
 31
0.0
  0
LINE
  5
23D
330
1F
100
AcDbEntity
  8
0
  6
Continuous
 62
     7
370
    25
100
AcDbLine
 10
144.0898452753
 20
158.333760567
 30
0.0
 11
152.5898401493
 21
158.333760567
 31
0.0
  0
ARC
  5
23E
330
1F
100
AcDbEntity
  8
0
  6
Continuous
 62
     7
370
    25
100
AcDbCircle
 10
143.4211835396
 20
158.2398446439
 30
0.0
 40
0.3406101413332067
100
AcDbArc
 50
145.2970729436
 51
180.7746486911
  0
ARC
  5
23F
330
1F
100
AcDbEntity
  8
0
  6
Continuous
 62
     7
370
    25
100
AcDbCircle
 10
144.0776886237
 20
162.7683912839
 30
0.0
 40
4.434647379359448
100
AcDbArc
 50
257.808263837
 51
270.1570645064
  0
LINE
  5
240
330
1F
100
AcDbEntity
  8
0
  6
Continuous
 62
     7
370
    25
100
AcDbLine
 10
144.0898452753
 20
180.0659241826
 30
0.0
 11
152.5898401493
 21
180.0659241826
 31
0.0
  0
LINE
  5
241
330
1F
100
AcDbEntity
  8
0
  6
Continuous
 62
     7
370
    25
100
AcDbLine
 10
152.5898401493
 20
179.8610211089
 30
0.0
 11
144.0898452753
 21
179.8610211089
 31
0.0
  0
LINE
  5
242
330
1F
100
AcDbEntity
  8
0
  6
Continuous
 62
     7
370
    25
100
AcDbLine
 10
144.0898452753
 20
180.0659241826
 30
0.0
 11
144.0898452753
 21
179.8610211089
 31
0.0
  0
ARC
  5
243
330
1F
100
AcDbEntity
  8
0
  6
Continuous
 62
     7
370
    25
100
AcDbCircle
 10
144.0776886237
 20
175.4263903921
 30
0.0
 40
4.434647379359364
100
AcDbArc
 50
89.8429354936
 51
102.191736163
  0
ARC
  5
244
330
1F
100
AcDbEntity
  8
0
  6
Continuous
 62
     7
370
    25
100
AcDbCircle
 10
143.4211835396
 20
179.954937032
 30
0.0
 40
0.3406101413332188
100
AcDbArc
 50
179.2253513089
 51
214.7029270564
  0
LINE
  5
245
330
1F
100
AcDbEntity
  8
0
  6
Continuous
 62
     7
370
    25
100
AcDbLine
 10
144.0898452753
 20
157.5659242198
 30
0.0
 11
152.5898401493
 21
157.5659242198
 31
0.0
  0
LINE
  5
246
330
1F
100
AcDbEntity
  8
0
  6
Continuous
 62
     7
370
    25
100
AcDbLine
 10
152.5898401493
 20
180.6288574562
 30
0.0
 11
144.0898452753
 21
180.6288574562
 31
0.0
  0
LINE
  5
247
330
1F
100
AcDbEntity
  8
0
  6
Continuous
 62
     7
370
    25
100
AcDbLine
 10
152.5898401493
 20
158.4337613285
 30
0.0
 11
143.1411628478
 21
158.4337613285
 31
0.0
  0
LINE
  5
248
330
1F
100
AcDbEntity
  8
0
  6
Continuous
 62
     7
370
    25
100
AcDbLine
 10
143.1411628478
 20
179.7610203475
 30
0.0
 11
152.5898401493
 21
179.7610203475
 31
0.0
  0
SPLINE
  5
249
330
1F
100
AcDbEntity
  8
0
  6
Continuous
 62
     7
370
    25
100
AcDbSpline
210
0.0
220
0.0
230
1.0
 70
     8
 71
     3
 72
    14
 73
    10
 74
     0
 42
0.000000001
 43
0.00000001
 40
0.0
 40
0.0
 40
0.0
 40
0.0
 40
0.4804163412447581
 40
0.6550949668873746
 40
0.8162198276022262
 40
0.9094136643456402
 40
0.9514385543238717
 40
0.9736558885713268
 40
1.0
 40
1.0
 40
1.0
 40
1.0
 10
143.1411628478449
 20
158.4337613284796
 30
0.0
 10
143.051267041782
 20
158.446094407603
 30
0.0
 10
142.9286852621041
 20
158.4629117748869
 30
0.0
 10
142.7828552076363
 20
158.5125756440457
 30
0.0
 10
142.7103681780659
 20
158.5489775235727
 30
0.0
 10
142.6664567222297
 20
158.5845358479384
 30
0.0
 10
142.6491115004362
 20
158.6087924827132
 30
0.0
 10
142.6420997683383
 20
158.6245381187916
 30
0.0
 10
142.6411970597622
 20
158.6336962208796
 30
0.0
 10
142.6407073491495
 20
158.6386644020885
 30
0.0
  0
SPLINE
  5
24A
330
1F
100
AcDbEntity
  8
0
  6
Continuous
 62
     7
370
    25
100
AcDbSpline
210
0.0
220
0.0
230
1.0
 70
     8
 71
     3
 72
    14
 73
    10
 74
     0
 42
0.000000001
 43
0.00000001
 40
0.0
 40
0.0
 40
0.0
 40
0.0
 40
0.0325716033349655
 40
0.0622235685283606
 40
0.1400162120663655
 40
0.2762031691058898
 40
0.5228084311796244
 40
0.896709836603425
 40
1.0
 40
1.0
 40
1.0
 40
1.0
 10
142.6407073491496
 20
179.556117273888
 30
0.0
 10
142.6414648365269
 20
179.5622583154803
 30
0.0
 10
142.6429119119824
 20
179.5739899308517
 30
0.0
 10
142.655835083107
 20
179.5974235280812
 30
0.0
 10
142.6882938422522
 20
179.630570003128
 30
0.0
 10
142.7633969712256
 20
179.6753434109165
 30
0.0
 10
142.8983553591081
 20
179.722912440259
 30
0.0
 10
143.0326901131096
 20
179.7482098187497
 30
0.0
 10
143.1218613507037
 20
179.7587408586963
 30
0.0
 10
143.1411628478449
 20
179.7610203474969
 30
0.0
  0
ARC
  5
24B
330
1F
100
AcDbEntity
  8
0
  6
Continuous
 62
     7
370
    25
100
AcDbCircle
 10
144.0776740878
 20
161.9455540783
 30
0.0
 40
4.434549889643569
100
AcDbArc
 50
257.8081838339
 51
270.157255768
  0
ARC
  5
24C
330
1F
100
AcDbEntity
  8
0
  6
Continuous
 62
     7
370
    25
100
AcDbCircle
 10
143.1106495042
 20
157.630630015
 30
0.0
 40
0.0362710426064424
100
AcDbArc
 50
267.5563133895
 51
327.2733142384
  0
ARC
  5
24D
330
1F
100
AcDbEntity
  8
0
  6
Continuous
 62
     7
370
    25
100
AcDbCircle
 10
143.1100301522
 20
180.5634018872
 30
0.0
 40
0.0371986069115178
100
AcDbArc
 50
33.1824745038
 51
89.534536874
  0
ARC
  5
24E
330
1F
100
AcDbEntity
  8
0
  6
Continuous
 62
     7
370
    25
100
AcDbCircle
 10
144.0776740878
 20
176.2492275977
 30
0.0
 40
4.434549889643597
100
AcDbArc
 50
89.842744232
 51
102.1918161661
  0
ARC
  5
24F
330
1F
100
AcDbEntity
  8
0
  6
Continuous
 62
     7
370
    25
100
AcDbCircle
 10
142.6376692578
 20
180.3802038503
 30
0.0
 40
0.258478287713903
100
AcDbArc
 50
89.32654374
 51
110.2493201342
  0
ARC
  5
250
330
1F
100
AcDbEntity
  8
0
  6
Continuous
 62
     7
370
    25
100
AcDbCircle
 10
142.6376692578
 20
157.8145778257
 30
0.0
 40
0.2584782877139273
100
AcDbArc
 50
249.7506798658
 51
270.67345626
  0
LINE
  5
251
330
1F
100
AcDbEntity
  8
0
  6
Continuous
 62
     7
370
    25
100
AcDbLine
 10
142.6407073491
 20
157.5561173931
 30
0.0
 11
142.6407073491
 21
156.9498990402
 31
0.0
  0
ARC
  5
252
330
1F
100
AcDbEntity
  8
0
  6
Continuous
 62
     7
370
    25
100
AcDbCircle
 10
142.6376768257
 20
157.2084033414
 30
0.0
 40
0.2585220644319967
100
AcDbArc
 50
249.7524712867
 51
270.671664839
  0
LINE
  5
253
330
1F
100
AcDbEntity
  8
0
  6
Continuous
 62
     7
370
    25
100
AcDbLine
 10
142.6407073491
 20
156.9498990402
 30
0.0
 11
152.5898401493
 21
156.9498990402
 31
0.0
  0
LINE
  5
254
330
1F
100
AcDbEntity
  8
0
  6
Continuous
 62
     7
370
    25
100
AcDbLine
 10
142.6407073491
 20
181.2448826358
 30
0.0
 11
142.6407073491
 21
180.6386642829
 31
0.0
  0
LINE
  5
255
330
1F
100
AcDbEntity
  8
0
  6
Continuous
 62
     7
370
    25
100
AcDbLine
 10
152.5898401493
 20
181.2448826358
 30
0.0
 11
142.6407073491
 21
181.2448826358
 31
0.0
  0
ARC
  5
256
330
1F
100
AcDbEntity
  8
0
  6
Continuous
 62
     7
370
    25
100
AcDbCircle
 10
142.6376768257
 20
180.9863783346
 30
0.0
 40
0.2585220644319682
100
AcDbArc
 50
89.328335161
 51
110.2475287133
  0
ARC
  5
257
330
1F
100
AcDbEntity
  8
0
  6
Continuous
 62
     7
370
    25
100
AcDbCircle
 10
143.4211776602
 20
156.5510801658
 30
0.0
 40
0.3406042743912296
100
AcDbArc
 50
145.2967608894
 51
180.7748107176
  0
ARC
  5
258
330
1F
100
AcDbEntity
  8
0
  6
Continuous
 62
     7
370
    25
100
AcDbCircle
 10
144.0776796816
 20
161.0795814593
 30
0.0
 40
4.434602941315497
100
AcDbArc
 50
257.8082579879
 51
270.157181614
  0
LINE
  5
259
330
1F
100
AcDbEntity
  8
0
  6
Continuous
 62
     7
370
    25
100
AcDbLine
 10
144.0898452753
 20
156.4400912002
 30
0.0
 11
144.0898452753
 21
156.6449952051
 31
0.0
  0
LINE
  5
25A
330
1F
100
AcDbEntity
  8
0
  6
Continuous
 62
     7
370
    25
100
AcDbLine
 10
152.5898401493
 20
156.4400912002
 30
0.0
 11
144.0898452753
 21
156.4400912002
 31
0.0
  0
LINE
  5
25B
330
1F
100
AcDbEntity
  8
0
  6
Continuous
 62
     7
370
    25
100
AcDbLine
 10
144.0898452753
 20
156.6449952051
 30
0.0
 11
152.5898401493
 21
156.6449952051
 31
0.0
  0
ARC
  5
25C
330
1F
100
AcDbEntity
  8
0
  6
Continuous
 62
     7
370
    25
100
AcDbCircle
 10
144.0776796816
 20
177.1152002167
 30
0.0
 40
4.434602941315497
100
AcDbArc
 50
89.842818386
 51
102.1917420121
  0
ARC
  5
25D
330
1F
100
AcDbEntity
  8
0
  6
Continuous
 62
     7
370
    25
100
AcDbCircle
 10
143.4211776602
 20
181.6437015102
 30
0.0
 40
0.3406042743912296
100
AcDbArc
 50
179.2251892824
 51
214.7032391106
  0
LINE
  5
25E
330
1F
100
AcDbEntity
  8
0
  6
Continuous
 62
     7
370
    25
100
AcDbLine
 10
144.0898452753
 20
181.5497864709
 30
0.0
 11
144.0898452753
 21
181.7546904758
 31
0.0
  0
LINE
  5
25F
330
1F
100
AcDbEntity
  8
0
  6
Continuous
 62
     7
370
    25
100
AcDbLine
 10
152.5898401493
 20
181.5497864709
 30
0.0
 11
144.0898452753
 21
181.5497864709
 31
0.0
  0
LINE
  5
260
330
1F
100
AcDbEntity
  8
0
  6
Continuous
 62
     7
370
    25
100
AcDbLine
 10
144.0898452753
 20
181.7546904758
 30
0.0
 11
152.5898401493
 21
181.7546904758
 31
0.0
  0
LINE
  5
261
330
1F
100
AcDbEntity
  8
0
  6
Continuous
 62
     7
370
    25
100
AcDbLine
 10
144.0898452753
 20
155.9204765335
 30
0.0
 11
152.5898401493
 21
155.9204765335
 31
0.0
  0
LINE
  5
262
330
1F
100
AcDbEntity
  8
0
  6
Continuous
 62
     7
370
    25
100
AcDbLine
 10
152.5898401493
 20
182.2743051425
 30
0.0
 11
144.0898452753
 21
182.2743051425
 31
0.0
  0
LINE
  5
263
330
1F
100
AcDbEntity
  8
0
  6
Continuous
 62
     7
370
    25
100
AcDbLine
 10
152.5898401493
 20
156.7449950353
 30
0.0
 11
143.1411628478
 21
156.7449950353
 31
0.0
  0
LINE
  5
264
330
1F
100
AcDbEntity
  8
0
  6
Continuous
 62
     7
370
    25
100
AcDbLine
 10
143.1411628478
 20
181.4497866407
 30
0.0
 11
152.5898401493
 21
181.4497866407
 31
0.0
  0
SPLINE
  5
265
330
1F
100
AcDbEntity
  8
0
  6
Continuous
 62
     7
370
    25
100
AcDbSpline
210
0.0
220
0.0
230
1.0
 70
     8
 71
     3
 72
    14
 73
    10
 74
     0
 42
0.000000001
 43
0.00000001
 40
0.0
 40
0.0
 40
0.0
 40
0.0
 40
0.4804164175215478
 40
0.6550949616838389
 40
0.8162197472406337
 40
0.9094135405129925
 40
0.9514370536994361
 40
0.9736559008597608
 40
1.0
 40
1.0
 40
1.0
 40
1.0
 10
143.1411628478449
 20
156.744995035252
 30
0.0
 10
143.0512670228378
 20
156.757328512286
 30
0.0
 10
142.9286852377639
 20
156.7741464193565
 30
0.0
 10
142.7828553191371
 20
156.8238103390656
 30
0.0
 10
142.7103678478854
 20
156.8602119642664
 30
0.0
 10
142.6664574495977
 20
156.8957706400649
 30
0.0
 10
142.6491109520401
 20
156.9200265254171
 30
0.0
 10
142.642099965616
 20
156.9357725413391
 30
0.0
 10
142.6411971191844
 20
156.9449308841993
 30
0.0
 10
142.6407073491496
 20
156.9498990401834
 30
0.0
  0
SPLINE
  5
266
330
1F
100
AcDbEntity
  8
0
  6
Continuous
 62
     7
370
    25
100
AcDbSpline
210
0.0
220
0.0
230
1.0
 70
     8
 71
     3
 72
    14
 73
    10
 74
     0
 42
0.000000001
 43
0.00000001
 40
0.0
 40
0.0
 40
0.0
 40
0.0
 40
0.0325715885027856
 40
0.0622250115606073
 40
0.140016402061081
 40
0.2762032970849461
 40
0.5228084468616724
 40
0.8967096820214286
 40
1.0
 40
1.0
 40
1.0
 40
1.0
 10
142.6407073491496
 20
181.2448826357931
 30
0.0
 10
142.6414648929648
 20
181.2510236488716
 30
0.0
 10
142.6429121104579
 20
181.2627554871813
 30
0.0
 10
142.6558343857454
 20
181.2861896366882
 30
0.0
 10
142.6882945763798
 20
181.3193350888328
 30
0.0
 10
142.7633966429041
 20
181.364108989362
 30
0.0
 10
142.8983555045199
 20
181.411677928888
 30
0.0
 10
143.0326902637495
 20
181.4369741810541
 30
0.0
 10
143.1218613532407
 20
181.4475068054716
 30
0.0
 10
143.1411628478449
 20
181.4497866407245
 30
0.0
  0
LINE
  5
267
330
1F
100
AcDbEntity
  8
0
  6
Continuous
 62
     7
370
    25
100
AcDbLine
 10
144.0898452753
 20
155.9204765335
 30
0.0
 11
144.0898452753
 21
154.8223997206
 31
0.0
  0
ARC
  5
268
330
1F
100
AcDbEntity
  8
0
  6
Continuous
 62
     7
370
    25
100
AcDbCircle
 10
143.9335938713
 20
157.1678889937
 30
0.0
 40
2.350688076203997
100
AcDbArc
 50
184.4020180972
 51
273.8112890297
  0
LINE
  5
269
330
1F
100
AcDbEntity
  8
0
  6
Continuous
 62
     7
370
    25
100
AcDbLine
 10
141.5898402089
 20
156.9874639362
 30
0.0
 11
141.5898402089
 21
157.1704762727
 31
0.0
  0
LINE
  5
26A
330
1F
100
AcDbEntity
  8
0
  6
Continuous
 62
     7
370
    25
100
AcDbLine
 10
152.5898401493
 20
154.8223997206
 30
0.0
 11
144.0898452753
 21
154.8223997206
 31
0.0
  0
LINE
  5
26B
330
1F
100
AcDbEntity
  8
0
  6
Continuous
 62
     7
370
    25
100
AcDbLine
 10
144.0898452753
 20
183.3723819554
 30
0.0
 11
144.0898452753
 21
182.2743051425
 31
0.0
  0
LINE
  5
26C
330
1F
100
AcDbEntity
  8
0
  6
Continuous
 62
     7
370
    25
100
AcDbLine
 10
144.0898452753
 20
183.3723819554
 30
0.0
 11
152.5898401493
 21
183.3723819554
 31
0.0
  0
ARC
  5
26D
330
1F
100
AcDbEntity
  8
0
  6
Continuous
 62
     7
370
    25
100
AcDbCircle
 10
143.9335938713
 20
181.0268926823
 30
0.0
 40
2.350688076203992
100
AcDbArc
 50
86.1887109703
 51
175.5979819028
  0
LINE
  5
26E
330
1F
100
AcDbEntity
  8
0
  6
Continuous
 62
     7
370
    25
100
AcDbLine
 10
141.5898402089
 20
181.0243054033
 30
0.0
 11
141.5898402089
 21
181.2073177397
 31
0.0
  0
LINE
  5
26F
330
1F
100
AcDbEntity
  8
0
  6
Continuous
 62
     7
370
    25
100
AcDbLine
 10
144.0898452753
 20
154.8223997206
 30
0.0
 11
144.0898452753
 21
146.9993152395
 31
0.0
  0
ARC
  5
270
330
1F
100
AcDbEntity
  8
0
  6
Continuous
 62
     7
370
    25
100
AcDbCircle
 10
143.9335925256
 20
149.344803114
 30
0.0
 40
2.350686770127423
100
AcDbArc
 50
184.4020318915
 51
273.8113240224
  0
LINE
  5
271
330
1F
100
AcDbEntity
  8
0
  6
Continuous
 62
     7
370
    25
100
AcDbLine
 10
141.5898402089
 20
153.7564535365
 30
0.0
 11
141.5898402089
 21
156.9874639362
 31
0.0
  0
LINE
  5
272
330
1F
100
AcDbEntity
  8
0
  6
Continuous
 62
     7
370
    25
100
AcDbLine
 10
141.5898402089
 20
152.395387061
 30
0.0
 11
141.5898402089
 21
153.7564535365
 31
0.0
  0
LINE
  5
273
330
1F
100
AcDbEntity
  8
0
  6
Continuous
 62
     7
370
    25
100
AcDbLine
 10
141.5898402089
 20
149.1643775925
 30
0.0
 11
141.5898402089
 21
152.395387061
 31
0.0
  0
LINE
  5
274
330
1F
100
AcDbEntity
  8
0
  6
Continuous
 62
     7
370
    25
100
AcDbLine
 10
144.0898452753
 20
146.9993152395
 30
0.0
 11
152.5898401493
 21
146.9993152395
 31
0.0
  0
ARC
  5
275
330
1F
100
AcDbEntity
  8
0
  6
Continuous
 62
     7
370
    25
100
AcDbCircle
 10
143.9335925256
 20
188.849978562
 30
0.0
 40
2.350686770127423
100
AcDbArc
 50
86.1886759776
 51
175.5979681085
  0
LINE
  5
276
330
1F
100
AcDbEntity
  8
0
  6
Continuous
 62
     7
370
    25
100
AcDbLine
 10
144.0898452753
 20
191.1954664365
 30
0.0
 11
144.0898452753
 21
183.3723819554
 31
0.0
  0
LINE
  5
277
330
1F
100
AcDbEntity
  8
0
  6
Continuous
 62
     7
370
    25
100
AcDbLine
 10
141.5898402089
 20
185.799394615
 30
0.0
 11
141.5898402089
 21
189.0304040835
 31
0.0
  0
LINE
  5
278
330
1F
100
AcDbEntity
  8
0
  6
Continuous
 62
     7
370
    25
100
AcDbLine
 10
141.5898402089
 20
184.4383281395
 30
0.0
 11
141.5898402089
 21
185.799394615
 31
0.0
  0
LINE
  5
279
330
1F
100
AcDbEntity
  8
0
  6
Continuous
 62
     7
370
    25
100
AcDbLine
 10
141.5898402089
 20
181.2073177397
 30
0.0
 11
141.5898402089
 21
184.4383281395
 31
0.0
  0
LINE
  5
27A
330
1F
100
AcDbEntity
  8
0
  6
Continuous
 62
     7
370
    25
100
AcDbLine
 10
152.5898401493
 20
191.1954664365
 30
0.0
 11
144.0898452753
 21
191.1954664365
 31
0.0
  0
LINE
  5
27B
330
1F
100
AcDbEntity
  8
0
  6
Continuous
 62
     7
370
    25
100
AcDbLine
 10
144.0898452753
 20
146.9993152395
 30
0.0
 11
144.0898452753
 21
146.5973899439
 31
0.0
  0
ARC
  5
27C
330
1F
100
AcDbEntity
  8
0
  6
Continuous
 62
     7
370
    25
100
AcDbCircle
 10
144.0898457813
 20
149.0973955164
 30
0.0
 40
2.500005572441892
100
AcDbArc
 50
180.0000969749
 51
269.9999884024
  0
LINE
  5
27D
330
1F
100
AcDbEntity
  8
0
  6
Continuous
 62
     7
370
    25
100
AcDbLine
 10
141.5898402089
 20
149.097391285
 30
0.0
 11
141.5898402089
 21
149.1643775925
 31
0.0
  0
LINE
  5
27E
330
1F
100
AcDbEntity
  8
0
  6
Continuous
 62
     7
370
    25
100
AcDbLine
 10
152.5898401493
 20
146.5973899439
 30
0.0
 11
144.0898452753
 21
146.5973899439
 31
0.0
  0
LINE
  5
27F
330
1F
100
AcDbEntity
  8
0
  6
Continuous
 62
     7
370
    25
100
AcDbLine
 10
144.0898452753
 20
191.5973917321
 30
0.0
 11
144.0898452753
 21
191.1954664365
 31
0.0
  0
LINE
  5
280
330
1F
100
AcDbEntity
  8
0
  6
Continuous
 62
     7
370
    25
100
AcDbLine
 10
144.0898452753
 20
191.5973917321
 30
0.0
 11
152.5898401493
 21
191.5973917321
 31
0.0
  0
ARC
  5
281
330
1F
100
AcDbEntity
  8
0
  6
Continuous
 62
     7
370
    25
100
AcDbCircle
 10
144.0898457813
 20
189.0973861596
 30
0.0
 40
2.500005572441915
100
AcDbArc
 50
90.0000115976
 51
179.9999030251
  0
LINE
  5
282
330
1F
100
AcDbEntity
  8
0
  6
Continuous
 62
     7
370
    25
100
AcDbLine
 10
141.5898402089
 20
189.0304040835
 30
0.0
 11
141.5898402089
 21
189.097390391
 31
0.0
  0
SPLINE
  5
283
330
1F
100
AcDbEntity
  8
0
  6
Continuous
 62
     7
370
    25
100
AcDbSpline
210
0.0
220
0.0
230
1.0
 70
     8
 71
     3
 72
    13
 73
     9
 74
     0
 42
0.000000001
 43
0.00000001
 40
0.0
 40
0.0
 40
0.0
 40
0.0
 40
0.5140699273051181
 40
0.7029125935418705
 40
0.870607132335002
 40
0.9554182711685174
 40
0.9949813449606447
 40
1.0
 40
1.0
 40
1.0
 40
1.0
 10
143.0806045287531
 20
146.8101561740249
 30
0.0
 10
142.9844819829883
 20
146.8566120318718
 30
0.0
 10
142.8530489923529
 20
146.9201333658185
 30
0.0
 10
142.7010094868793
 20
147.0177642729636
 30
0.0
 10
142.6260079279394
 20
147.0702330225672
 30
0.0
 10
142.5775347362696
 20
147.1065537571616
 30
0.0
 10
142.5563068483089
 20
147.1229648539319
 30
0.0
 10
142.549027807346
 20
147.1286639593992
 30
0.0
 10
142.5482083910387
 20
147.1293055191845
 30
0.0
  0
SPLINE
  5
284
330
1F
100
AcDbEntity
  8
0
  6
Continuous
 62
     7
370
    25
100
AcDbSpline
210
0.0
220
0.0
230
1.0
 70
     8
 71
     3
 72
    13
 73
     9
 74
     0
 42
0.000000001
 43
0.00000001
 40
0.0
 40
0.0
 40
0.0
 40
0.0
 40
0.0006378771328212
 40
0.0238897825183716
 40
0.0875619000208456
 40
0.2242251039557964
 40
0.4897193649948722
 40
1.0
 40
1.0
 40
1.0
 40
1.0
 10
142.5482083910387
 20
191.065476156792
 30
0.0
 10
142.54831269943
 20
191.0655574919648
 30
0.0
 10
142.5522192586287
 20
191.0686036578935
 30
0.0
 10
142.5665337001474
 20
191.0797737232558
 30
0.0
 10
142.6034346569741
 20
191.1078493431201
 30
0.0
 10
142.6817746473313
 20
191.1643585289177
 30
0.0
 10
142.8401977202414
 20
191.2683235997016
 30
0.0
 10
142.985216004739
 20
191.3384792764585
 30
0.0
 10
143.0806045287531
 20
191.3846255019516
 30
0.0
  0
LINE
  5
285
330
1F
100
AcDbEntity
  8
0
  6
Continuous
 62
     7
370
    25
100
AcDbLine
 10
160.0898404473
 20
189.5973914042
 30
0.0
 11
160.0898404473
 21
148.5973902717
 31
0.0
  0
LINE
  5
286
330
1F
100
AcDbEntity
  8
0
  6
Continuous
 62
     7
370
    25
100
AcDbLine
 10
160.5898414606
 20
166.5259719566
 30
0.0
 11
160.5898414606
 21
166.0512328353
 31
0.0
  0
ARC
  5
287
330
1F
100
AcDbEntity
  8
0
  6
Continuous
 62
     7
370
    25
100
AcDbCircle
 10
160.4680586576
 20
165.2114108772
 30
0.0
 40
0.8486058993561726
100
AcDbArc
 50
81.7490368599
 51
116.4677230377
  0
ARC
  5
288
330
1F
100
AcDbEntity
  8
0
  6
Continuous
 62
     7
370
    25
100
AcDbCircle
 10
160.5426928232
 20
166.9803107423
 30
0.0
 40
0.4567786402978699
100
AcDbArc
 50
187.5177188722
 51
275.9246160176
  0
LINE
  5
289
330
1F
100
AcDbEntity
  8
0
  6
Continuous
 62
     7
370
    25
100
AcDbLine
 10
160.5898414606
 20
166.0512328353
 30
0.0
 11
160.5898414606
 21
165.5455207192
 31
0.0
  0
ARC
  5
28A
330
1F
100
AcDbEntity
  8
0
  6
Continuous
 62
     7
370
    25
100
AcDbCircle
 10
160.4692143972
 20
164.8067279321
 30
0.0
 40
0.748575761400191
100
AcDbArc
 50
80.7268065345
 51
120.4505364527
  0
LINE
  5
28B
330
1F
100
AcDbEntity
  8
0
  6
Continuous
 62
     7
370
    25
100
AcDbLine
 10
160.5898414606
 20
165.5455207192
 30
0.0
 11
160.5898414606
 21
165.163176015
 31
0.0
  0
ARC
  5
28C
330
1F
100
AcDbEntity
  8
0
  6
Continuous
 62
     7
370
    25
100
AcDbCircle
 10
160.578047406
 20
164.674953849
 30
0.0
 40
0.4883646006093089
100
AcDbArc
 50
88.6161665912
 51
178.5441622592
  0
SPLINE
  5
28D
330
1F
100
AcDbEntity
  8
0
  6
Continuous
 62
     7
370
    25
100
AcDbSpline
210
0.0
220
0.0
230
1.0
 70
     8
 71
     3
 72
    11
 73
     7
 74
     0
 42
0.000000001
 43
0.00000001
 40
0.0
 40
0.0
 40
0.0
 40
0.0
 40
0.1420328007341083
 40
0.3750239744960365
 40
0.6760179779639525
 40
0.9999999999999999
 40
0.9999999999999999
 40
0.9999999999999999
 40
0.9999999999999999
 10
160.156716858713
 20
167.1284778248727
 30
0.0
 10
160.2648855664814
 20
167.1736156124383
 30
0.0
 10
160.5504946546199
 20
167.2927976070573
 30
0.0
 10
161.1076112062056
 20
167.3601554172915
 30
0.0
 10
161.8086994589095
 20
167.4254028463864
 30
0.0
 10
162.3231534220648
 20
167.4315623360046
 30
0.0
 10
162.5898417883795
 20
167.4347553607285
 30
0.0
  0
SPLINE
  5
28E
330
1F
100
AcDbEntity
  8
0
  6
Continuous
 62
     7
370
    25
100
AcDbSpline
210
0.0
220
0.0
230
1.0
 70
     8
 71
     3
 72
    11
 73
     7
 74
     0
 42
0.000000001
 43
0.00000001
 40
0.0
 40
0.0
 40
0.0
 40
0.0
 40
0.2763708298468903
 40
0.5400035025476385
 40
0.7828489976867694
 40
1.0
 40
1.0
 40
1.0
 40
1.0
 10
162.5898417883795
 20
180.9230566695541
 30
0.0
 10
162.3110832925946
 20
180.9430084036769
 30
0.0
 10
161.7664145076432
 20
180.9819922802103
 30
0.0
 10
161.034306129158
 20
181.2950542964497
 30
0.0
 10
160.4436662061018
 20
181.7556045085687
 30
0.0
 10
160.2487371916835
 20
182.1808615486163
 30
0.0
 10
160.156716858713
 20
182.3816130608529
 30
0.0
  0
LINE
  5
28F
330
1F
100
AcDbEntity
  8
0
  6
Continuous
 62
     7
370
    25
100
AcDbLine
 10
162.5898417884
 20
180.9230566696
 30
0.0
 11
162.5898417884
 21
167.4347553607
 31
0.0
  0
LINE
  5
290
330
1F
100
AcDbEntity
  8
0
  6
Continuous
 62
     7
370
    25
100
AcDbLine
 10
167.8472024256
 20
166.6237987783
 30
0.0
 11
167.8472024256
 21
166.0512328353
 31
0.0
  0
LINE
  5
291
330
1F
100
AcDbEntity
  8
0
  6
Continuous
 62
     7
370
    25
100
AcDbLine
 10
167.8472024256
 20
165.5455207192
 30
0.0
 11
167.8472024256
 21
166.0512328353
 31
0.0
  0
SPLINE
  5
292
330
1F
100
AcDbEntity
  8
0
  6
Continuous
 62
     7
370
    25
100
AcDbSpline
210
0.0
220
0.0
230
1.0
 70
     8
 71
     3
 72
    10
 73
     6
 74
     0
 42
0.000000001
 43
0.00000001
 40
0.0
 40
0.0
 40
0.0
 40
0.0
 40
0.4691321041665916
 40
0.5839695184381907
 40
0.9999999999999999
 40
0.9999999999999999
 40
0.9999999999999999
 40
0.9999999999999999
 10
160.6433440798205
 20
166.6237987783015
 30
0.0
 10
160.6268008738896
 20
166.6135917393061
 30
0.0
 10
160.6062081071294
 20
166.6008861504244
 30
0.0
 10
160.5917256021138
 20
166.5635523734245
 30
0.0
 10
160.5906692793983
 20
166.5424833365613
 30
0.0
 10
160.589841460554
 20
166.5259719565719
 30
0.0
  0
ARC
  5
293
330
1F
100
AcDbEntity
  8
0
  6
Continuous
 62
     7
370
    25
100
AcDbCircle
 10
160.67046168
 20
167.1368964795
 30
0.0
 40
0.5138137942768067
100
AcDbArc
 50
180.9388127908
 51
266.9746895424
  0
SPLINE
  5
294
330
1F
100
AcDbEntity
  8
0
  6
Continuous
 62
     7
370
    25
100
AcDbSpline
210
0.0
220
0.0
230
1.0
 70
     8
 71
     3
 72
     9
 73
     5
 74
     0
 42
0.000000001
 43
0.00000001
 40
0.0
 40
0.0
 40
0.0
 40
0.0
 40
0.6725323342576731
 40
1.0
 40
1.0
 40
1.0
 40
1.0
 10
168.6898444646281
 20
165.1774657629639
 30
0.0
 10
168.5010927580284
 20
165.1655066711844
 30
0.0
 10
168.2204345695889
 20
165.1477244900606
 30
0.0
 10
167.9392735638233
 20
165.1468678268448
 30
0.0
 10
167.8472024255675
 20
165.1465872973412
 30
0.0
  0
LINE
  5
295
330
1F
100
AcDbEntity
  8
0
  6
Continuous
 62
     7
370
    25
100
AcDbLine
 10
167.8472024256
 20
166.0512328353
 30
0.0
 11
160.5898414606
 21
166.0512328353
 31
0.0
  0
LINE
  5
296
330
1F
100
AcDbEntity
  8
0
  6
Continuous
 62
     7
370
    25
100
AcDbLine
 10
160.6433440798
 20
166.6237987783
 30
0.0
 11
167.8472024256
 21
166.6237987783
 31
0.0
  0
LINE
  5
297
330
1F
100
AcDbEntity
  8
0
  6
Continuous
 62
     7
370
    25
100
AcDbLine
 10
160.5898414606
 20
165.5455207192
 30
0.0
 11
167.8472024256
 21
165.5455207192
 31
0.0
  0
LINE
  5
298
330
1F
100
AcDbEntity
  8
0
  6
Continuous
 62
     7
370
    25
100
AcDbLine
 10
141.0898466462
 20
152.9093914405
 30
0.0
 11
141.0898466462
 21
185.2853902355
 31
0.0
  0
SPLINE
  5
299
330
1F
100
AcDbEntity
  8
0
  6
Continuous
 62
     7
370
    25
100
AcDbSpline
210
0.0
220
0.0
230
1.0
 70
     8
 71
     3
 72
    11
 73
     7
 74
     0
 42
0.000000001
 43
0.00000001
 40
0.0
 40
0.0
 40
0.0
 40
0.0
 40
0.3231706836126314
 40
0.6236200460230783
 40
0.8567010123032189
 40
1.0
 40
1.0
 40
1.0
 40
1.0
 10
162.5898417883795
 20
166.8919686898798
 30
0.0
 10
162.3764478017121
 20
166.8891153905916
 30
0.0
 10
161.9646630250146
 20
166.8836094003404
 30
0.0
 10
161.4037842100389
 20
166.8263905333119
 30
0.0
 10
160.9565905112615
 20
166.7662980784224
 30
0.0
 10
160.7297202881397
 20
166.6630922801491
 30
0.0
 10
160.6433440798205
 20
166.6237987783015
 30
0.0
  0
SPLINE
  5
29A
330
1F
100
AcDbEntity
  8
0
  6
Continuous
 62
     7
370
    25
100
AcDbSpline
210
0.0
220
0.0
230
1.0
 70
     8
 71
     3
 72
    11
 73
     7
 74
     0
 42
0.000000001
 43
0.00000001
 40
0.0
 40
0.0
 40
0.0
 40
0.0
 40
0.2451086185343332
 40
0.4953987803384856
 40
0.7508156769738433
 40
0.9999999999999999
 40
0.9999999999999999
 40
0.9999999999999999
 40
0.9999999999999999
 10
160.156716858713
 20
152.2472434416622
 30
0.0
 10
160.2491606598391
 20
152.4988364094409
 30
0.0
 10
160.4360025040859
 20
153.007340966011
 30
0.0
 10
161.0320693783447
 20
153.5902933847921
 30
0.0
 10
161.7706892354692
 20
153.9774886337854
 30
0.0
 10
162.3190486213677
 20
154.0256172234282
 30
0.0
 10
162.5898417883795
 20
154.0493842885107
 30
0.0
  0
SPLINE
  5
29B
330
1F
100
AcDbEntity
  8
0
  6
Continuous
 62
     7
370
    25
100
AcDbSpline
210
0.0
220
0.0
230
1.0
 70
     8
 71
     3
 72
    11
 73
     7
 74
     0
 42
0.000000001
 43
0.00000001
 40
0.0
 40
0.0
 40
0.0
 40
0.0
 40
0.3331489511743225
 40
0.6301978105105915
 40
0.8602125981786208
 40
1.0
 40
1.0
 40
1.0
 40
1.0
 10
162.5898417883795
 20
165.0451481081754
 30
0.0
 10
162.3140561188273
 20
165.0409638850372
 30
0.0
 10
161.792368974055
 20
165.0330488420781
 30
0.0
 10
161.0874586098243
 20
164.9533101549975
 30
0.0
 10
160.5356815151033
 20
164.8700044702117
 30
0.0
 10
160.2606720524654
 20
164.7333639119782
 30
0.0
 10
160.156716858713
 20
164.681712977609
 30
0.0
  0
LINE
  5
29C
330
1F
100
AcDbEntity
  8
0
  6
Continuous
 62
     7
370
    25
100
AcDbLine
 10
162.5898417884
 20
165.0451481082
 30
0.0
 11
162.5898417884
 21
154.0493842885
 31
0.0
  0
LINE
  5
29D
330
1F
100
AcDbEntity
  8
0
  6
Continuous
 62
     7
370
    25
100
AcDbLine
 10
162.5898417884
 20
166.8919686899
 30
0.0
 11
162.5898417884
 21
167.4347553607
 31
0.0
  0
LINE
  5
29E
330
1F
100
AcDbEntity
  8
0
  6
Continuous
 62
     7
370
    25
100
AcDbLine
 10
160.5898414606
 20
183.4858664051
 30
0.0
 11
160.5898414606
 21
183.002357252
 31
0.0
  0
ARC
  5
29F
330
1F
100
AcDbEntity
  8
0
  6
Continuous
 62
     7
370
    25
100
AcDbCircle
 10
160.470344162
 20
182.3276799373
 30
0.0
 40
0.6851781398214472
100
AcDbArc
 50
79.9560668189
 51
123.7338232604
  0
ARC
  5
2A0
330
1F
100
AcDbEntity
  8
0
  6
Continuous
 62
     7
370
    25
100
AcDbCircle
 10
160.5365326225
 20
183.934920573
 30
0.0
 40
0.4522073394947482
100
AcDbArc
 50
188.9575746523
 51
276.7701035465
  0
SPLINE
  5
2A1
330
1F
100
AcDbEntity
  8
0
  6
Continuous
 62
     7
370
    25
100
AcDbSpline
210
0.0
220
0.0
230
1.0
 70
     8
 71
     3
 72
    10
 73
     6
 74
     0
 42
0.000000001
 43
0.00000001
 40
0.0
 40
0.0
 40
0.0
 40
0.0
 40
0.3833710891757175
 40
0.8947070086193394
 40
0.9999999999999999
 40
0.9999999999999999
 40
0.9999999999999999
 40
0.9999999999999999
 10
160.589841460554
 20
183.002357251963
 30
0.0
 10
160.5909538495113
 20
182.9735591321396
 30
0.0
 10
160.5935499299789
 20
182.9063504135677
 30
0.0
 10
160.6160494273942
 20
182.8326963491443
 30
0.0
 10
160.6393631289809
 20
182.7926642018385
 30
0.0
 10
160.6433440798205
 20
182.7858284786552
 30
0.0
  0
ARC
  5
2A2
330
1F
100
AcDbEntity
  8
0
  6
Continuous
 62
     7
370
    25
100
AcDbCircle
 10
160.6795829152
 20
182.2471729194
 30
0.0
 40
0.5398731931336918
100
AcDbArc
 50
93.8488570099
 51
165.5803708898
  0
SPLINE
  5
2A3
330
1F
100
AcDbEntity
  8
0
  6
Continuous
 62
     7
370
    25
100
AcDbSpline
210
0.0
220
0.0
230
1.0
 70
     8
 71
     3
 72
    11
 73
     7
 74
     0
 42
0.000000001
 43
0.00000001
 40
0.0
 40
0.0
 40
0.0
 40
0.0
 40
0.2184043259564228
 40
0.4616407105888913
 40
0.7247336832695818
 40
1.0
 40
1.0
 40
1.0
 40
1.0
 10
160.6433440798205
 20
182.7858284786552
 30
0.0
 10
160.7168362801524
 20
182.623243874106
 30
0.0
 10
160.8721765713093
 20
182.2795891774957
 30
0.0
 10
161.344367330215
 20
181.9053781831677
 30
0.0
 10
161.9304870405838
 20
181.6507899002091
 30
0.0
 10
162.3667684835641
 20
181.6190385340263
 30
0.0
 10
162.5898417883795
 20
181.6028038710564
 30
0.0
  0
LINE
  5
2A4
330
1F
100
AcDbEntity
  8
0
  6
Continuous
 62
     7
370
    25
100
AcDbLine
 10
162.5898417884
 20
181.6028038711
 30
0.0
 11
162.5898417884
 21
180.9230566696
 31
0.0
  0
LINE
  5
2A5
330
1F
100
AcDbEntity
  8
0
  6
Continuous
 62
     7
370
    25
100
AcDbLine
 10
160.5898414606
 20
183.8159466833
 30
0.0
 11
160.5898414606
 21
183.4858664051
 31
0.0
  0
ARC
  5
2A6
330
1F
100
AcDbEntity
  8
0
  6
Continuous
 62
     7
370
    25
100
AcDbCircle
 10
160.539859429
 20
184.2678139023
 30
0.0
 40
0.4546231264251863
100
AcDbArc
 50
188.161191284
 51
276.3119538553
  0
LINE
  5
2A7
330
1F
100
AcDbEntity
  8
0
  6
Continuous
 62
     7
370
    25
100
AcDbLine
 10
167.8472024256
 20
183.4858664051
 30
0.0
 11
167.8472024256
 21
182.7858284787
 31
0.0
  0
LINE
  5
2A8
330
1F
100
AcDbEntity
  8
0
  6
Continuous
 62
     7
370
    25
100
AcDbLine
 10
167.8472024256
 20
182.7858284787
 30
0.0
 11
160.6433440798
 21
182.7858284787
 31
0.0
  0
LINE
  5
2A9
330
1F
100
AcDbEntity
  8
0
  6
Continuous
 62
     7
370
    25
100
AcDbLine
 10
160.5898414606
 20
183.4858664051
 30
0.0
 11
167.8472024256
 21
183.4858664051
 31
0.0
  0
LINE
  5
2AA
330
1F
100
AcDbEntity
  8
0
  6
Continuous
 62
     7
370
    25
100
AcDbLine
 10
167.8472024256
 20
183.4858664051
 30
0.0
 11
167.8472024256
 21
183.8159466833
 31
0.0
  0
LINE
  5
2AB
330
1F
100
AcDbEntity
  8
0
  6
Continuous
 62
     7
370
    25
100
AcDbLine
 10
167.8472024256
 20
183.8159466833
 30
0.0
 11
160.5898414606
 21
183.8159466833
 31
0.0
  0
SPLINE
  5
2AC
330
1F
100
AcDbEntity
  8
0
  6
Continuous
 62
     7
370
    25
100
AcDbSpline
210
0.0
220
0.0
230
1.0
 70
     8
 71
     3
 72
    10
 73
     6
 74
     0
 42
0.000000001
 43
0.00000001
 40
0.0
 40
0.0
 40
0.0
 40
0.0
 40
0.5168409340631384
 40
0.6347371914853639
 40
1.0
 40
1.0
 40
1.0
 40
1.0
 10
160.6433440798205
 20
151.9711789414495
 30
0.0
 10
160.6269947525444
 20
151.9315599171011
 30
0.0
 10
160.6069159906007
 20
151.8829034222553
 30
0.0
 10
160.5925106717565
 20
151.801537623953
 30
0.0
 10
160.5909906100628
 20
151.7616554292385
 30
0.0
 10
160.589841460554
 20
151.7315049395174
 30
0.0
  0
ARC
  5
2AD
330
1F
100
AcDbEntity
  8
0
  6
Continuous
 62
     7
370
    25
100
AcDbCircle
 10
160.4672105348
 20
150.7697180282
 30
0.0
 40
0.9695733116691785
100
AcDbArc
 50
82.7338101531
 51
112.9055099692
  0
ARC
  5
2AE
330
1F
100
AcDbEntity
  8
0
  6
Continuous
 62
     7
370
    25
100
AcDbCircle
 10
160.6791111187
 20
152.6011550698
 30
0.0
 40
0.6309906523977317
100
AcDbArc
 50
214.1168519811
 51
266.7505075095
  0
SPLINE
  5
2AF
330
1F
100
AcDbEntity
  8
0
  6
Continuous
 62
     7
370
    25
100
AcDbSpline
210
0.0
220
0.0
230
1.0
 70
     8
 71
     3
 72
    11
 73
     7
 74
     0
 42
0.000000001
 43
0.00000001
 40
0.0
 40
0.0
 40
0.0
 40
0.0
 40
0.2485970466718722
 40
0.503733247633262
 40
0.7542485873637027
 40
1.0
 40
1.0
 40
1.0
 40
1.0
 10
162.5898417883795
 20
153.4223750904411
 30
0.0
 10
162.3731644704633
 20
153.4032014746229
 30
0.0
 10
161.9341103042791
 20
153.3643498957555
 30
0.0
 10
161.3430468286225
 20
153.052087805387
 30
0.0
 10
160.8664779973231
 20
152.5824630046812
 30
0.0
 10
160.7172445286499
 20
152.1736321011516
 30
0.0
 10
160.6433440798205
 20
151.9711789414495
 30
0.0
  0
LINE
  5
2B0
330
1F
100
AcDbEntity
  8
0
  6
Continuous
 62
     7
370
    25
100
AcDbLine
 10
162.5898417884
 20
153.4223750904
 30
0.0
 11
162.5898417884
 21
154.0493842885
 31
0.0
  0
LINE
  5
2B1
330
1F
100
AcDbEntity
  8
0
  6
Continuous
 62
     7
370
    25
100
AcDbLine
 10
160.5898414606
 20
151.7315049395
 30
0.0
 11
160.5898414606
 21
151.3326772228
 31
0.0
  0
ARC
  5
2B2
330
1F
100
AcDbEntity
  8
0
  6
Continuous
 62
     7
370
    25
100
AcDbCircle
 10
160.5741223059
 20
150.8483581458
 30
0.0
 40
0.4845741018212881
100
AcDbArc
 50
88.1410495425
 51
178.0100070866
  0
LINE
  5
2B3
330
1F
100
AcDbEntity
  8
0
  6
Continuous
 62
     7
370
    25
100
AcDbLine
 10
160.6433440798
 20
151.9711789414
 30
0.0
 11
167.8472024256
 21
151.9711789414
 31
0.0
  0
LINE
  5
2B4
330
1F
100
AcDbEntity
  8
0
  6
Continuous
 62
     7
370
    25
100
AcDbLine
 10
167.8472024256
 20
151.9711789414
 30
0.0
 11
167.8472024256
 21
151.3326772228
 31
0.0
  0
LINE
  5
2B5
330
1F
100
AcDbEntity
  8
0
  6
Continuous
 62
     7
370
    25
100
AcDbLine
 10
167.8472024256
 20
151.3326772228
 30
0.0
 11
160.5898414606
 21
151.3326772228
 31
0.0
  0
LINE
  5
2B6
330
1F
100
AcDbEntity
  8
0
  6
Continuous
 62
     7
370
    25
100
AcDbLine
 10
160.5898414606
 20
151.3326772228
 30
0.0
 11
160.5898414606
 21
151.1570446864
 31
0.0
  0
ARC
  5
2B7
330
1F
100
AcDbEntity
  8
0
  6
Continuous
 62
     7
370
    25
100
AcDbCircle
 10
160.576291746
 20
150.6705701115
 30
0.0
 40
0.4866632375947679
100
AcDbArc
 50
88.4045604203
 51
178.3089969547
  0
SPLINE
  5
2B8
330
1F
100
AcDbEntity
  8
0
  6
Continuous
 62
     7
370
    25
100
AcDbSpline
210
0.0
220
0.0
230
1.0
 70
     8
 71
     3
 72
     9
 73
     5
 74
     0
 42
0.000000001
 43
0.00000001
 40
0.0
 40
0.0
 40
0.0
 40
0.0
 40
0.3852471748575768
 40
1.0
 40
1.0
 40
1.0
 40
1.0
 10
167.8472024255675
 20
151.1570446863979
 30
0.0
 10
167.9583725649561
 20
151.1583592051581
 30
0.0
 10
168.2469409092398
 20
151.1617713489609
 30
0.0
 10
168.5212265760564
 20
151.2549529205536
 30
0.0
 10
168.6898444646281
 20
151.3122365549415
 30
0.0
  0
LINE
  5
2B9
330
1F
100
AcDbEntity
  8
0
  6
Continuous
 62
     7
370
    25
100
AcDbLine
 10
167.8472024256
 20
151.1570446864
 30
0.0
 11
167.8472024256
 21
151.3326772228
 31
0.0
  0
LINE
  5
2BA
330
1F
100
AcDbEntity
  8
0
  6
Continuous
 62
     7
370
    25
100
AcDbLine
 10
160.5898414606
 20
151.1570446864
 30
0.0
 11
167.8472024256
 21
151.1570446864
 31
0.0
  0
LINE
  5
2BB
330
1F
100
AcDbEntity
  8
0
  6
Continuous
 62
     7
370
    25
100
AcDbLine
 10
167.8472024256
 20
151.1570446864
 30
0.0
 11
167.8472024256
 21
151.1291590259
 31
0.0
  0
LINE
  5
2BC
330
1F
100
AcDbEntity
  8
0
  6
Continuous
 62
     7
370
    25
100
AcDbLine
 10
167.8472024256
 20
186.7366329506
 30
0.0
 11
160.6433440798
 21
186.7366329506
 31
0.0
  0
SPLINE
  5
2BD
330
1F
100
AcDbEntity
  8
0
  6
Continuous
 62
     7
370
    25
100
AcDbSpline
210
0.0
220
0.0
230
1.0
 70
     8
 71
     3
 72
    10
 73
     6
 74
     0
 42
0.000000001
 43
0.00000001
 40
0.0
 40
0.0
 40
0.0
 40
0.0
 40
0.3195654048142614
 40
0.8695658684722526
 40
1.0
 40
1.0
 40
1.0
 40
1.0
 10
160.589841460554
 20
186.9365711435884
 30
0.0
 10
160.591277481902
 20
186.9143608992636
 30
0.0
 10
160.5951850236192
 20
186.8539248504789
 30
0.0
 10
160.6188241442267
 20
186.7873116560665
 30
0.0
 10
160.6393998698653
 20
186.7447849889431
 30
0.0
 10
160.6433440798205
 20
186.7366329506248
 30
0.0
  0
SPLINE
  5
2BE
330
1F
100
AcDbEntity
  8
0
  6
Continuous
 62
     7
370
    25
100
AcDbSpline
210
0.0
220
0.0
230
1.0
 70
     8
 71
     3
 72
     9
 73
     5
 74
     0
 42
0.000000001
 43
0.00000001
 40
0.0
 40
0.0
 40
0.0
 40
0.0
 40
0.3852471748575768
 40
1.0
 40
1.0
 40
1.0
 40
1.0
 10
167.8472024255675
 20
187.0377369895786
 30
0.0
 10
167.9583725649561
 20
187.0364224708184
 30
0.0
 10
168.2469409092398
 20
187.0330103270156
 30
0.0
 10
168.5212265760564
 20
186.9398287554229
 30
0.0
 10
168.6898444646281
 20
186.882545121035
 30
0.0
  0
SPLINE
  5
2BF
330
1F
100
AcDbEntity
  8
0
  6
Continuous
 62
     7
370
    25
100
AcDbSpline
210
0.0
220
0.0
230
1.0
 70
     8
 71
     3
 72
    19
 73
    15
 74
     0
 42
0.000000001
 43
0.00000001
 40
0.0
 40
0.0
 40
0.0
 40
0.0
 40
0.10429076858754
 40
0.2002597267738564
 40
0.2832338501942157
 40
0.3917257948560572
 40
0.4765329789248794
 40
0.4948113124945588
 40
0.5843375138269232
 40
0.6199217428253991
 40
0.7252793798259983
 40
0.8206372136837782
 40
0.929340430190319
 40
1.0
 40
1.0
 40
1.0
 40
1.0
 10
186.1898426764887
 20
171.2103517465502
 30
0.0
 10
186.4380693545281
 20
171.1931693861861
 30
0.0
 10
186.9147156329608
 20
171.1601757201269
 30
0.0
 10
187.5480838103406
 20
170.9022460642121
 30
0.0
 10
188.0977980666662
 20
170.4862915779596
 30
0.0
 10
188.464432439897
 20
169.9196917206655
 30
0.0
 10
188.5768131445988
 20
169.4221324769954
 30
0.0
 10
188.5991413693544
 20
168.9656561599423
 30
0.0
 10
188.5525753075833
 20
168.6212747066425
 30
0.0
 10
188.362999590756
 20
168.1076982757617
 30
0.0
 10
188.031668274442
 20
167.6346354937864
 30
0.0
 10
187.4159701293501
 20
167.2160925357249
 30
0.0
 10
186.7835932076649
 20
167.0134437879076
 30
0.0
 10
186.3576442993406
 20
166.992629623208
 30
0.0
 10
186.1898426764887
 20
166.9844299294263
 30
0.0
  0
LINE
  5
2C0
330
1F
100
AcDbEntity
  8
0
  6
Continuous
 62
     7
370
    25
100
AcDbLine
 10
186.1898426765
 20
167.7239661776
 30
0.0
 11
186.1898426765
 21
166.9844299294
 31
0.0
  0
SPLINE
  5
2C1
330
1F
100
AcDbEntity
  8
0
  6
Continuous
 62
     7
370
    25
100
AcDbSpline
210
0.0
220
0.0
230
1.0
 70
     8
 71
     3
 72
    18
 73
    14
 74
     0
 42
0.000000001
 43
0.00000001
 40
0.0
 40
0.0
 40
0.0
 40
0.0
 40
0.0693130725571352
 40
0.1761268900479672
 40
0.270556721625373
 40
0.3767759616011609
 40
0.4741025903817693
 40
0.5054374271818041
 40
0.6113279913073183
 40
0.7209426884959609
 40
0.803268223848902
 40
0.8976825801536736
 40
1.0
 40
1.0
 40
1.0
 40
1.0
 10
186.1898426764887
 20
167.7239661775738
 30
0.0
 10
186.2947307944104
 20
167.7291654163516
 30
0.0
 10
186.5612550925118
 20
167.742376860063
 30
0.0
 10
186.9577404427651
 20
167.8715464817679
 30
0.0
 10
187.3442744278754
 20
168.1427881532933
 30
0.0
 10
187.6012383226501
 20
168.5275632956891
 30
0.0
 10
187.6841961216915
 20
168.879796505811
 30
0.0
 10
187.6955549378378
 20
169.2344275238116
 30
0.0
 10
187.6279121986103
 20
169.609770135687
 30
0.0
 10
187.3853453762478
 20
170.0043703591065
 30
0.0
 10
187.0402313944005
 20
170.2741469330917
 30
0.0
 10
186.6434465051796
 20
170.4389954942494
 30
0.0
 10
186.3450397945725
 20
170.4599285247274
 30
0.0
 10
186.1898426764887
 20
170.4708154984027
 30
0.0
  0
LINE
  5
2C2
330
1F
100
AcDbEntity
  8
0
  6
Continuous
 62
     7
370
    25
100
AcDbLine
 10
186.1898426765
 20
171.2103517466
 30
0.0
 11
186.1898426765
 21
170.4708154984
 31
0.0
  0
LINE
  5
2C3
330
1F
100
AcDbEntity
  8
0
  6
Continuous
 62
     7
370
    25
100
AcDbLine
 10
182.9926197284
 20
171.2103517466
 30
0.0
 11
186.1898426765
 21
171.2103517466
 31
0.0
  0
SPLINE
  5
2C4
330
1F
100
AcDbEntity
  8
0
  6
Continuous
 62
     7
370
    25
100
AcDbSpline
210
0.0
220
0.0
230
1.0
 70
     8
 71
     3
 72
    17
 73
    13
 74
     0
 42
0.000000001
 43
0.00000001
 40
0.0
 40
0.0
 40
0.0
 40
0.0
 40
0.1172222938230966
 40
0.2364750003841539
 40
0.3533889041846583
 40
0.4606396817588099
 40
0.558897991656316
 40
0.6532084062069463
 40
0.74904847137401
 40
0.8506501125592967
 40
0.9604312962064813
 40
1.0
 40
1.0
 40
1.0
 40
1.0
 10
182.9926197284144
 20
166.9844299294263
 30
0.0
 10
182.728979632913
 20
167.0113649741642
 30
0.0
 10
182.197132919701
 20
167.0657016067876
 30
0.0
 10
181.5006212868372
 20
167.4928914770355
 30
0.0
 10
181.0139660268447
 20
168.106751208692
 30
0.0
 10
180.7935878849152
 20
168.810411409734
 30
0.0
 10
180.8164654003259
 20
169.4924251089872
 30
0.0
 10
181.040556634677
 20
170.1084009971227
 30
0.0
 10
181.4448808533453
 20
170.6344054352057
 30
0.0
 10
182.0193690290919
 20
171.0299938378563
 30
0.0
 10
182.5698925756692
 20
171.195058107982
 30
0.0
 10
182.9040801866828
 20
171.2071485178448
 30
0.0
 10
182.9926197284144
 20
171.2103517465502
 30
0.0
  0
LINE
  5
2C5
330
1F
100
AcDbEntity
  8
0
  6
Continuous
 62
     7
370
    25
100
AcDbLine
 10
186.1898426765
 20
166.9844299294
 30
0.0
 11
182.9926197284
 21
166.9844299294
 31
0.0
  0
LINE
  5
2C6
330
1F
100
AcDbEntity
  8
0
  6
Continuous
 62
     7
370
    25
100
AcDbLine
 10
168.6898444646
 20
148.5973902717
 30
0.0
 11
168.6898444646
 21
189.5973914042
 31
0.0
  0
LINE
  5
2C7
330
1F
100
AcDbEntity
  8
0
  6
Continuous
 62
     7
370
    25
100
AcDbLine
 10
182.9926197284
 20
171.2103517466
 30
0.0
 11
182.9926197284
 21
170.4708154984
 31
0.0
  0
SPLINE
  5
2C8
330
1F
100
AcDbEntity
  8
0
  6
Continuous
 62
     7
370
    25
100
AcDbSpline
210
0.0
220
0.0
230
1.0
 70
     8
 71
     3
 72
    17
 73
    13
 74
     0
 42
0.000000001
 43
0.00000001
 40
0.0
 40
0.0
 40
0.0
 40
0.0
 40
0.0409749422942826
 40
0.1540706846715964
 40
0.2569261572686278
 40
0.3517931566904953
 40
0.4433395000871618
 40
0.5378521419788213
 40
0.6417377898628696
 40
0.7575554551921281
 40
0.8788400598783638
 40
1.0
 40
1.0
 40
1.0
 40
1.0
 10
182.9926197284144
 20
170.4708154984027
 30
0.0
 10
182.9306592291585
 20
170.4687320066072
 30
0.0
 10
182.6976803399048
 20
170.4608978282173
 30
0.0
 10
182.3155080489138
 20
170.3552621733099
 30
0.0
 10
181.9131424894516
 20
170.099902474295
 30
0.0
 10
181.6282962418373
 20
169.7583222339589
 30
0.0
 10
181.4695132576825
 20
169.3561999896439
 30
0.0
 10
181.453197299357
 20
168.9091470476821
 30
0.0
 10
181.610276117007
 20
168.4481973968707
 30
0.0
 10
181.9541340859911
 20
168.0496917753947
 30
0.0
 10
182.4402848006172
 20
167.775842990901
 30
0.0
 10
182.808571209893
 20
167.7412525198961
 30
0.0
 10
182.9926197284144
 20
167.7239661775738
 30
0.0
  0
LINE
  5
2C9
330
1F
100
AcDbEntity
  8
0
  6
Continuous
 62
     7
370
    25
100
AcDbLine
 10
182.9926197284
 20
167.7239661776
 30
0.0
 11
182.9926197284
 21
166.9844299294
 31
0.0
  0
LINE
  5
2CA
330
1F
100
AcDbEntity
  8
0
  6
Continuous
 62
     7
370
    25
100
AcDbLine
 10
182.9926197284
 20
170.4708154984
 30
0.0
 11
182.9926197284
 21
167.7239661776
 31
0.0
  0
LINE
  5
2CB
330
1F
100
AcDbEntity
  8
0
  6
Continuous
 62
     7
370
    25
100
AcDbLine
 10
186.1898426765
 20
170.4708154984
 30
0.0
 11
182.9926197284
 21
170.4708154984
 31
0.0
  0
LINE
  5
2CC
330
1F
100
AcDbEntity
  8
0
  6
Continuous
 62
     7
370
    25
100
AcDbLine
 10
182.9926197284
 20
167.7239661776
 30
0.0
 11
186.1898426765
 21
167.7239661776
 31
0.0
  0
SPLINE
  5
2CD
330
1F
100
AcDbEntity
  8
0
  6
Continuous
 62
     7
370
    25
100
AcDbSpline
210
0.0
220
0.0
230
1.0
 70
     8
 71
     3
 72
    12
 73
     8
 74
     0
 42
0.000000001
 43
0.00000001
 40
0.0
 40
0.0
 40
0.0
 40
0.0
 40
0.1816642380086742
 40
0.4339412752855928
 40
0.6597640855462592
 40
0.8481367708945113
 40
1.0
 40
1.0
 40
1.0
 40
1.0
 10
194.6942985856217
 20
182.8992505297273
 30
0.0
 10
194.5829186477817
 20
182.9065489624658
 30
0.0
 10
194.316865445471
 20
182.9239827251307
 30
0.0
 10
193.928742521469
 20
183.0644906356006
 30
0.0
 10
193.592838924186
 20
183.297391012867
 30
0.0
 10
193.3529236669305
 20
183.5664593007578
 30
0.0
 10
193.3123895251219
 20
183.7742367584542
 30
0.0
 10
193.2942972385567
 20
183.866977572462
 30
0.0
  0
SPLINE
  5
2CE
330
1F
100
AcDbEntity
  8
0
  6
Continuous
 62
     7
370
    25
100
AcDbSpline
210
0.0
220
0.0
230
1.0
 70
     8
 71
     3
 72
    12
 73
     8
 74
     0
 42
0.000000001
 43
0.00000001
 40
0.0
 40
0.0
 40
0.0
 40
0.0
 40
0.1061799363818896
 40
0.2937733420106591
 40
0.5137289471568143
 40
0.7511467824929919
 40
1.0
 40
1.0
 40
1.0
 40
1.0
 10
193.2942972385567
 20
154.3278041035146
 30
0.0
 10
193.3034717919675
 20
154.3929036625771
 30
0.0
 10
193.3288554878783
 20
154.5730178694687
 30
0.0
 10
193.5266720537275
 20
154.8357594988718
 30
0.0
 10
193.8385052271407
 20
155.0793479693038
 30
0.0
 10
194.2427730801357
 20
155.2570714552556
 30
0.0
 10
194.5414488167341
 20
155.2825118266129
 30
0.0
 10
194.6942985856217
 20
155.2955311462492
 30
0.0
  0
LINE
  5
2CF
330
1F
100
AcDbEntity
  8
0
  6
Continuous
 62
     7
370
    25
100
AcDbLine
 10
201.5898444557
 20
166.5973908939
 30
0.0
 11
201.8662237429
 21
166.5973908939
 31
0.0
  0
ARC
  5
2D0
330
1F
100
AcDbEntity
  8
0
  6
Continuous
 62
     7
370
    25
100
AcDbCircle
 10
193.2373885552
 20
183.4173524085
 30
0.0
 40
0.4532122972112935
100
AcDbArc
 50
3.3098816443
 51
82.7864772394
  0
ARC
  5
2D1
330
1F
100
AcDbEntity
  8
0
  6
Continuous
 62
     7
370
    25
100
AcDbCircle
 10
193.2373885552
 20
154.7774292675
 30
0.0
 40
0.4532122972113176
100
AcDbArc
 50
277.2135227606
 51
356.6901183557
  0
LINE
  5
2D2
330
1F
100
AcDbEntity
  8
0
  6
Continuous
 62
     7
370
    25
100
AcDbLine
 10
152.5898401493
 20
128.128130801
 30
0.0
 11
152.5898401493
 21
211.0721030012
 31
0.0
  0
LINE
  5
2D3
330
1F
100
AcDbEntity
  8
0
  6
Continuous
 62
     7
370
    25
100
AcDbLine
 10
154.5898442024
 20
126.9780182019
 30
0.0
 11
154.5898442024
 21
210.4251802638
 31
0.0
  0
LINE
  5
2D4
330
1F
100
AcDbEntity
  8
0
  6
Continuous
 62
     8
370
    25
100
AcDbLine
 10
236.8881211483
 20
174.3258753531
 30
0.0
 11
236.8881211483
 21
186.0973917619
 31
0.0
  0
LINE
  5
2D5
330
1F
100
AcDbEntity
  8
0
  6
Continuous
 62
     8
370
    25
100
AcDbLine
 10
236.8881211483
 20
152.0973899141
 30
0.0
 11
236.8881211483
 21
174.3258753531
 31
0.0
  0
LINE
  5
2D6
330
1F
100
AcDbEntity
  8
0
  6
Continuous
 62
     8
370
    25
100
AcDbLine
 10
245.2835489863
 20
173.848910138
 30
0.0
 11
245.2835489863
 21
153.6482049823
 31
0.0
  0
LINE
  5
2D7
330
1F
100
AcDbEntity
  8
0
  6
Continuous
 62
     8
370
    25
100
AcDbLine
 10
245.2835489863
 20
184.5465766937
 30
0.0
 11
245.2835489863
 21
173.848910138
 31
0.0
  0
LINE
  5
2D8
330
1F
100
AcDbEntity
  8
0
  6
Continuous
 62
     8
370
    25
100
AcDbLine
 10
276.5008148604
 20
172.0208596643
 30
0.0
 11
276.5008148604
 21
178.6028164178
 31
0.0
  0
LINE
  5
2D9
330
1F
100
AcDbEntity
  8
0
  6
Continuous
 62
     8
370
    25
100
AcDbLine
 10
276.5008148604
 20
159.5919652581
 30
0.0
 11
276.5008148604
 21
172.0208596643
 31
0.0
  0
LINE
  5
2DA
330
1F
100
AcDbEntity
  8
0
  6
Continuous
 62
     8
370
    25
100
AcDbLine
 10
222.4898443424
 20
149.9973916188
 30
0.0
 11
222.4898443424
 21
188.1973900572
 31
0.0
  0
LINE
  5
2DB
330
1F
100
AcDbEntity
  8
0
  6
Continuous
 62
     8
370
    25
100
AcDbLine
 10
195.5898453349
 20
188.1973900572
 30
0.0
 11
195.5898453349
 21
149.9973916188
 31
0.0
  0
LINE
  5
2DC
330
1F
100
AcDbEntity
  8
0
  6
Continuous
 62
     8
370
    25
100
AcDbLine
 10
223.9595379547
 20
151.197391443
 30
0.0
 11
223.9595379547
 21
186.997390233
 31
0.0
  0
LINE
  5
2DD
330
1F
100
AcDbEntity
  8
0
  6
Continuous
 62
     8
370
    25
100
AcDbLine
 10
224.4494359807
 20
186.5973909125
 30
0.0
 11
224.4494359807
 21
151.5973907635
 31
0.0
  0
LWPOLYLINE
  5
2DE
330
1F
100
AcDbEntity
  8
0
  6
Continuous
 62
     8
370
    25
100
AcDbPolyline
 90
        7
 70
   128
 43
0.0
 10
143.1091029995
 20
159.2831573189
 10
143.1075160259
 20
159.2835577876
 10
143.0983443612
 20
159.2893142924
 10
143.0908118242
 20
159.3004668802
 10
143.0852164381
 20
159.3165843487
 10
143.0817668193
 20
159.3370482996
 10
143.0806045288
 20
159.3610726968
  0
LINE
  5
2DF
330
1F
100
AcDbEntity
  8
0
  6
Continuous
 62
     8
370
    25
100
AcDbLine
 10
144.0898452753
 20
159.1796901748
 30
0.0
 11
144.0898452753
 21
159.254690513
 31
0.0
  0
LINE
  5
2E0
330
1F
100
AcDbEntity
  8
0
  6
Continuous
 62
     8
370
    25
100
AcDbLine
 10
144.0898452753
 20
178.9400911629
 30
0.0
 11
144.0898452753
 21
179.0150915012
 31
0.0
  0
LWPOLYLINE
  5
2E1
330
1F
100
AcDbEntity
  8
0
  6
Continuous
 62
     8
370
    25
100
AcDbPolyline
 90
        7
 70
   128
 43
0.0
 10
143.0806045288
 20
178.8337089792
 10
143.0817668193
 20
178.8577333763
 10
143.0852164381
 20
178.8781973273
 10
143.0908118242
 20
178.8943147958
 10
143.0983443612
 20
178.9054673836
 10
143.1075160259
 20
178.9112238884
 10
143.1103323453
 20
178.9118339047
  0
SPLINE
  5
2E2
330
1F
100
AcDbEntity
  8
0
  6
Continuous
 62
     8
370
    25
100
AcDbSpline
210
0.0
220
0.0
230
1.0
 70
     8
 71
     3
 72
    13
 73
     9
 74
     0
 42
0.000000001
 43
0.00000001
 40
0.0
 40
0.0
 40
0.0
 40
0.0
 40
0.3292453241218637
 40
0.6505060557698413
 40
0.8248890640658642
 40
0.9023110622968947
 40
0.9449682406779759
 40
1.0
 40
1.0
 40
1.0
 40
1.0
 10
142.8649251216334
 20
178.8753214031667
 30
0.0
 10
142.8370225000885
 20
178.8754797567603
 30
0.0
 10
142.7818939289077
 20
178.8757926236837
 30
0.0
 10
142.712469261027
 20
178.8861513021302
 30
0.0
 10
142.666728377047
 20
178.9054940934859
 30
0.0
 10
142.6488977156139
 20
178.9235133067345
 30
0.0
 10
142.6419337041851
 20
178.9368918500569
 30
0.0
 10
142.6411492570014
 20
178.9452119203898
 30
0.0
 10
142.6407073491496
 20
178.9498989209741
 30
0.0
  0
SPLINE
  5
2E3
330
1F
100
AcDbEntity
  8
0
  6
Continuous
 62
     8
370
    25
100
AcDbSpline
210
0.0
220
0.0
230
1.0
 70
     8
 71
     3
 72
    12
 73
     8
 74
     0
 42
0.000000001
 43
0.00000001
 40
0.0
 40
0.0
 40
0.0
 40
0.0
 40
0.0697315676278267
 40
0.1276726873770015
 40
0.2764090430455052
 40
0.551146515942666
 40
1.0
 40
1.0
 40
1.0
 40
1.0
 10
142.6407073491496
 20
159.2448827550024
 30
0.0
 10
142.641385027085
 20
159.2506170707009
 30
0.0
 10
142.6426257988925
 20
159.261116124722
 30
0.0
 10
142.6555930158388
 20
159.2802875368045
 30
0.0
 10
142.6898320442075
 20
159.301677810478
 30
0.0
 10
142.7600068195101
 20
159.3178269879261
 30
0.0
 10
142.8191396185725
 20
159.3183136685245
 30
0.0
 10
142.8558205121439
 20
159.3186155632347
 30
0.0
  0
LINE
  5
2E4
330
1F
100
AcDbEntity
  8
0
  6
Continuous
 62
     8
370
    25
100
AcDbLine
 10
142.6407073491
 20
178.949898921
 30
0.0
 11
143.4450422281
 21
178.949898921
 31
0.0
  0
LINE
  5
2E5
330
1F
100
AcDbEntity
  8
0
  6
Continuous
 62
     8
370
    25
100
AcDbLine
 10
143.4450422281
 20
159.244882755
 30
0.0
 11
142.6407073491
 21
159.244882755
 31
0.0
  0
LWPOLYLINE
  5
2E6
330
1F
100
AcDbEntity
  8
0
  6
Continuous
 62
     8
370
    25
100
AcDbPolyline
 90
        7
 70
   128
 43
0.0
 10
143.1091029995
 20
157.5943919569
 10
143.1075160259
 20
157.5947914943
 10
143.0983443612
 20
157.6005489305
 10
143.0908118242
 20
157.611700587
 10
143.0852164381
 20
157.6278189868
 10
143.0817668193
 20
157.6482829377
 10
143.0806045288
 20
157.6723073349
  0
LINE
  5
2E7
330
1F
100
AcDbEntity
  8
0
  6
Continuous
 62
     8
370
    25
100
AcDbLine
 10
144.0898452753
 20
157.4909248129
 30
0.0
 11
144.0898452753
 21
157.5659242198
 31
0.0
  0
LWPOLYLINE
  5
2E8
330
1F
100
AcDbEntity
  8
0
  6
Continuous
 62
     8
370
    25
100
AcDbPolyline
 90
        7
 70
   128
 43
0.0
 10
143.0806045288
 20
180.5224743411
 10
143.0817668193
 20
180.5464987383
 10
143.0852164381
 20
180.5669626892
 10
143.0908118242
 20
180.583081089
 10
143.0983443612
 20
180.5942327455
 10
143.1075160259
 20
180.5999901816
 10
143.1103323453
 20
180.6005992666
  0
LINE
  5
2E9
330
1F
100
AcDbEntity
  8
0
  6
Continuous
 62
     8
370
    25
100
AcDbLine
 10
144.0898452753
 20
180.6288574562
 30
0.0
 11
144.0898452753
 21
180.7038568631
 31
0.0
  0
SPLINE
  5
2EA
330
1F
100
AcDbEntity
  8
0
  6
Continuous
 62
     8
370
    25
100
AcDbSpline
210
0.0
220
0.0
230
1.0
 70
     8
 71
     3
 72
    13
 73
     9
 74
     0
 42
0.000000001
 43
0.00000001
 40
0.0
 40
0.0
 40
0.0
 40
0.0
 40
0.3292453241218637
 40
0.6505060557698413
 40
0.8248890640658642
 40
0.9023110622968947
 40
0.9449682406779759
 40
1.0
 40
1.0
 40
1.0
 40
1.0
 10
142.8649251216334
 20
180.5640867650717
 30
0.0
 10
142.8370225000885
 20
180.5642451186653
 30
0.0
 10
142.7818939289077
 20
180.5645579855887
 30
0.0
 10
142.712469261027
 20
180.5749166640353
 30
0.0
 10
142.666728377047
 20
180.594259455391
 30
0.0
 10
142.6488977156139
 20
180.6122786686396
 30
0.0
 10
142.6419337041851
 20
180.625657211962
 30
0.0
 10
142.6411492570014
 20
180.6339772822949
 30
0.0
 10
142.6407073491496
 20
180.6386642828792
 30
0.0
  0
SPLINE
  5
2EB
330
1F
100
AcDbEntity
  8
0
  6
Continuous
 62
     8
370
    25
100
AcDbSpline
210
0.0
220
0.0
230
1.0
 70
     8
 71
     3
 72
    12
 73
     8
 74
     0
 42
0.000000001
 43
0.00000001
 40
0.0
 40
0.0
 40
0.0
 40
0.0
 40
0.0697315676278267
 40
0.1276726873770015
 40
0.2764090430455052
 40
0.551146515942666
 40
1.0
 40
1.0
 40
1.0
 40
1.0
 10
142.6407073491496
 20
157.5561173930973
 30
0.0
 10
142.641385027085
 20
157.5618517087958
 30
0.0
 10
142.6426257988925
 20
157.572350762817
 30
0.0
 10
142.6555930158388
 20
157.5915221748994
 30
0.0
 10
142.6898320442075
 20
157.6129124485729
 30
0.0
 10
142.7600068195101
 20
157.629061626021
 30
0.0
 10
142.8191396185725
 20
157.6295483066194
 30
0.0
 10
142.8558205121439
 20
157.6298502013296
 30
0.0
  0
LINE
  5
2EC
330
1F
100
AcDbEntity
  8
0
  6
Continuous
 62
     8
370
    25
100
AcDbLine
 10
142.6407073491
 20
180.6386642829
 30
0.0
 11
143.4450422281
 21
180.6386642829
 31
0.0
  0
LINE
  5
2ED
330
1F
100
AcDbEntity
  8
0
  6
Continuous
 62
     8
370
    25
100
AcDbLine
 10
143.4450422281
 20
157.5561173931
 30
0.0
 11
142.6407073491
 21
157.5561173931
 31
0.0
  0
LINE
  5
2EE
330
1F
100
AcDbEntity
  8
0
  6
Continuous
 62
     8
370
    25
100
AcDbLine
 10
159.589839434
 20
148.0973911211
 30
0.0
 11
159.589839434
 21
190.0973905549
 31
0.0
  0
LINE
  5
2EF
330
1F
100
AcDbEntity
  8
0
  6
Continuous
 62
     8
370
    25
100
AcDbLine
 10
158.0898438447
 20
190.0973905549
 30
0.0
 11
158.0898438447
 21
148.0973911211
 31
0.0
  0
SPLINE
  5
2F0
330
1F
100
AcDbEntity
  8
0
  6
Continuous
 62
     8
370
    25
100
AcDbSpline
210
0.0
220
0.0
230
1.0
 70
     8
 71
     3
 72
     9
 73
     5
 74
     0
 42
0.000000001
 43
0.00000001
 40
0.0
 40
0.0
 40
0.0
 40
0.0
 40
0.3274676675284294
 40
0.9999999999999999
 40
0.9999999999999999
 40
0.9999999999999999
 40
0.9999999999999999
 10
167.8472024255675
 20
166.6237987783015
 30
0.0
 10
167.9392735637013
 20
166.6240793981133
 30
0.0
 10
168.2204345675609
 20
166.624936337102
 30
0.0
 10
168.5010927575126
 20
166.6427184385749
 30
0.0
 10
168.6898444646281
 20
166.6546774767548
 30
0.0
  0
SPLINE
  5
2F1
330
1F
100
AcDbEntity
  8
0
  6
Continuous
 62
     8
370
    25
100
AcDbSpline
210
0.0
220
0.0
230
1.0
 70
     8
 71
     3
 72
     9
 73
     5
 74
     0
 42
0.000000001
 43
0.00000001
 40
0.0
 40
0.0
 40
0.0
 40
0.0
 40
0.6070025981880398
 40
1.0
 40
1.0
 40
1.0
 40
1.0
 10
168.6898444646281
 20
166.079569954446
 30
0.0
 10
168.5194877050388
 20
166.0691201184875
 30
0.0
 10
168.2388352661567
 20
166.0519046469398
 30
0.0
 10
167.9576912811932
 20
166.0514223691982
 30
0.0
 10
167.8472024255675
 20
166.0512328352988
 30
0.0
  0
SPLINE
  5
2F2
330
1F
100
AcDbEntity
  8
0
  6
Continuous
 62
     8
370
    25
100
AcDbSpline
210
0.0
220
0.0
230
1.0
 70
     8
 71
     3
 72
     9
 73
     5
 74
     0
 42
0.000000001
 43
0.00000001
 40
0.0
 40
0.0
 40
0.0
 40
0.0
 40
0.3929846580467503
 40
1.0
 40
1.0
 40
1.0
 40
1.0
 10
167.8472024255675
 20
165.5455207191616
 30
0.0
 10
167.9576924385268
 20
165.5457142763973
 30
0.0
 10
168.2388484854537
 20
165.5462068076748
 30
0.0
 10
168.5194904727456
 20
165.5638122688599
 30
0.0
 10
168.6898444646281
 20
165.5744990539014
 30
0.0
  0
LINE
  5
2F3
330
1F
100
AcDbEntity
  8
0
  6
Continuous
 62
     8
370
    25
100
AcDbLine
 10
167.8472024256
 20
165.5455207192
 30
0.0
 11
167.8472024256
 21
165.1389909648
 31
0.0
  0
SPLINE
  5
2F4
330
1F
100
AcDbEntity
  8
0
  6
Continuous
 62
     8
370
    25
100
AcDbSpline
210
0.0
220
0.0
230
1.0
 70
     8
 71
     3
 72
     9
 73
     5
 74
     0
 42
0.000000001
 43
0.00000001
 40
0.0
 40
0.0
 40
0.0
 40
0.0
 40
0.5329291194604951
 40
1.0
 40
1.0
 40
1.0
 40
1.0
 10
160.589841460554
 20
165.1631760150403
 30
0.0
 10
160.5907518180677
 20
165.1548240372329
 30
0.0
 10
160.5924600330639
 20
165.1391522011438
 30
0.0
 10
160.6076374638064
 20
165.1417685221854
 30
0.0
 10
160.6147263997477
 20
165.1429905295581
 30
0.0
  0
LINE
  5
2F5
330
1F
100
AcDbEntity
  8
0
  6
Continuous
 62
     8
370
    25
100
AcDbLine
 10
168.6898444646
 20
166.8919686899
 30
0.0
 11
162.5898417884
 21
166.8919686899
 31
0.0
  0
ARC
  5
2F6
330
1F
100
AcDbEntity
  8
0
  6
Continuous
 62
     8
370
    25
100
AcDbCircle
 10
160.6291309311
 20
164.6779485251
 30
0.0
 40
0.4724290707998085
100
AcDbArc
 50
126.4096857187
 51
179.5434457039
  0
LINE
  5
2F7
330
1F
100
AcDbEntity
  8
0
  6
Continuous
 62
     8
370
    25
100
AcDbLine
 10
162.5898417884
 20
165.1389909648
 30
0.0
 11
162.5898417884
 21
165.0451481082
 31
0.0
  0
LINE
  5
2F8
330
1F
100
AcDbEntity
  8
0
  6
Continuous
 62
     8
370
    25
100
AcDbLine
 10
162.5898417884
 20
167.4347553607
 30
0.0
 11
168.6898444646
 21
167.4347553607
 31
0.0
  0
LINE
  5
2F9
330
1F
100
AcDbEntity
  8
0
  6
Continuous
 62
     8
370
    25
100
AcDbLine
 10
168.6898444646
 20
165.0451481082
 30
0.0
 11
162.5898417884
 21
165.0451481082
 31
0.0
  0
LINE
  5
2FA
330
1F
100
AcDbEntity
  8
0
  6
Continuous
 62
     8
370
    25
100
AcDbLine
 10
168.6898444646
 20
180.9230566696
 30
0.0
 11
162.5898417884
 21
180.9230566696
 31
0.0
  0
LINE
  5
2FB
330
1F
100
AcDbEntity
  8
0
  6
Continuous
 62
     8
370
    25
100
AcDbLine
 10
162.5898417884
 20
154.0493842885
 30
0.0
 11
168.6898444646
 21
154.0493842885
 31
0.0
  0
SPLINE
  5
2FC
330
1F
100
AcDbEntity
  8
0
  6
Continuous
 62
     8
370
    25
100
AcDbSpline
210
0.0
220
0.0
230
1.0
 70
     8
 71
     3
 72
     9
 73
     5
 74
     0
 42
0.000000001
 43
0.00000001
 40
0.0
 40
0.0
 40
0.0
 40
0.0
 40
0.3878937274527001
 40
1.0
 40
1.0
 40
1.0
 40
1.0
 10
167.8472024255675
 20
183.4858664050907
 30
0.0
 10
167.9581449585487
 20
183.4848732075183
 30
0.0
 10
168.2441576603001
 20
183.4823127186471
 30
0.0
 10
168.5206200821129
 20
183.4062258735801
 30
0.0
 10
168.6898444646281
 20
183.3596526384562
 30
0.0
  0
SPLINE
  5
2FD
330
1F
100
AcDbEntity
  8
0
  6
Continuous
 62
     8
370
    25
100
AcDbSpline
210
0.0
220
0.0
230
1.0
 70
     8
 71
     3
 72
     9
 73
     5
 74
     0
 42
0.000000001
 43
0.00000001
 40
0.0
 40
0.0
 40
0.0
 40
0.0
 40
0.6772479977291471
 40
1.0
 40
1.0
 40
1.0
 40
1.0
 10
168.6898444646281
 20
182.6496076509565
 30
0.0
 10
168.5024840806531
 20
182.7023839116498
 30
0.0
 10
168.2258344861128
 20
182.7803114372686
 30
0.0
 10
167.9395887953898
 20
182.7844823184142
 30
0.0
 10
167.8472024255675
 20
182.7858284786552
 30
0.0
  0
LINE
  5
2FE
330
1F
100
AcDbEntity
  8
0
  6
Continuous
 62
     8
370
    25
100
AcDbLine
 10
162.5898417884
 20
181.6028038711
 30
0.0
 11
168.6898444646
 21
181.6028038711
 31
0.0
  0
SPLINE
  5
2FF
330
1F
100
AcDbEntity
  8
0
  6
Continuous
 62
     8
370
    25
100
AcDbSpline
210
0.0
220
0.0
230
1.0
 70
     8
 71
     3
 72
     9
 73
     5
 74
     0
 42
0.000000001
 43
0.00000001
 40
0.0
 40
0.0
 40
0.0
 40
0.0
 40
0.6121412475746465
 40
1.0
 40
1.0
 40
1.0
 40
1.0
 10
168.6898444646281
 20
183.6893138215154
 30
0.0
 10
168.5206280100805
 20
183.7360424887177
 30
0.0
 10
168.244194335307
 20
183.8123789019024
 30
0.0
 10
167.9581480002273
 20
183.8149496112054
 30
0.0
 10
167.8472024255675
 20
183.8159466833085
 30
0.0
  0
LINE
  5
300
330
1F
100
AcDbEntity
  8
0
  6
Continuous
 62
     8
370
    25
100
AcDbLine
 10
160.5898414606
 20
183.9286162257
 30
0.0
 11
160.5898414606
 21
183.8159466833
 31
0.0
  0
LINE
  5
301
330
1F
100
AcDbEntity
  8
0
  6
Continuous
 62
     8
370
    25
100
AcDbLine
 10
167.8472024256
 20
183.9285864234
 30
0.0
 11
167.8472024256
 21
183.8159466833
 31
0.0
  0
LINE
  5
302
330
1F
100
AcDbEntity
  8
0
  6
Continuous
 62
     8
370
    25
100
AcDbLine
 10
162.5898417884
 20
185.5973907486
 30
0.0
 11
162.5898417884
 21
183.9286162257
 31
0.0
  0
SPLINE
  5
303
330
1F
100
AcDbEntity
  8
0
  6
Continuous
 62
     8
370
    25
100
AcDbSpline
210
0.0
220
0.0
230
1.0
 70
     8
 71
     3
 72
     9
 73
     5
 74
     0
 42
0.000000001
 43
0.00000001
 40
0.0
 40
0.0
 40
0.0
 40
0.0
 40
0.3203433541307497
 40
1.0
 40
1.0
 40
1.0
 40
1.0
 10
167.8472024255675
 20
151.9711789414495
 30
0.0
 10
167.9397445745294
 20
151.9728967378882
 30
0.0
 10
168.2286288225357
 20
151.9782590980448
 30
0.0
 10
168.5032180626799
 20
152.0735283322546
 30
0.0
 10
168.6898444646281
 20
152.1382787004322
 30
0.0
  0
LINE
  5
304
330
1F
100
AcDbEntity
  8
0
  6
Continuous
 62
     8
370
    25
100
AcDbLine
 10
168.6898444646
 20
153.4223750904
 30
0.0
 11
162.5898417884
 21
153.4223750904
 31
0.0
  0
SPLINE
  5
305
330
1F
100
AcDbEntity
  8
0
  6
Continuous
 62
     8
370
    25
100
AcDbSpline
210
0.0
220
0.0
230
1.0
 70
     8
 71
     3
 72
     9
 73
     5
 74
     0
 42
0.000000001
 43
0.00000001
 40
0.0
 40
0.0
 40
0.0
 40
0.0
 40
0.6147308061904729
 40
1.0
 40
1.0
 40
1.0
 40
1.0
 10
168.6898444646281
 20
151.4876455739349
 30
0.0
 10
168.5212214746709
 20
151.4304438614193
 30
0.0
 10
168.2469176846882
 20
151.3373922167978
 30
0.0
 10
167.9583706925895
 20
151.3339885505575
 30
0.0
 10
167.8472024255675
 20
151.3326772228092
 30
0.0
  0
LINE
  5
306
330
1F
100
AcDbEntity
  8
0
  6
Continuous
 62
     8
370
    25
100
AcDbLine
 10
160.5898414606
 20
151.1570446864
 30
0.0
 11
160.5898414606
 21
151.1291590259
 31
0.0
  0
LINE
  5
307
330
1F
100
AcDbEntity
  8
0
  6
Continuous
 62
     8
370
    25
100
AcDbLine
 10
160.6433440798
 20
186.7366329506
 30
0.0
 11
160.8080838674
 21
186.3659106866
 31
0.0
  0
LWPOLYLINE
  5
308
330
1F
100
AcDbEntity
  8
0
  6
Continuous
 62
     8
370
    25
100
AcDbPolyline
 90
        3
 70
   128
 43
0.0
 10
160.6433440798
 20
186.7366329506
 10
160.5493252033
 20
186.7190439925
 10
160.5078776234
 20
186.7134076283
  0
SPLINE
  5
309
330
1F
100
AcDbEntity
  8
0
  6
Continuous
 62
     8
370
    25
100
AcDbSpline
210
0.0
220
0.0
230
1.0
 70
     8
 71
     3
 72
     9
 73
     5
 74
     0
 42
0.000000001
 43
0.00000001
 40
0.0
 40
0.0
 40
0.0
 40
0.0
 40
0.6796566458692503
 40
1.0
 40
1.0
 40
1.0
 40
1.0
 10
168.6898444646281
 20
186.5695331916422
 30
0.0
 10
168.5032180626798
 20
186.6342835598197
 30
0.0
 10
168.2286288225357
 20
186.7295527940296
 30
0.0
 10
167.9397445745294
 20
186.7349151541862
 30
0.0
 10
167.8472024255675
 20
186.7366329506248
 30
0.0
  0
ARC
  5
30A
330
1F
100
AcDbEntity
  8
0
  6
Continuous
 62
     8
370
    25
100
AcDbCircle
 10
160.586652548
 20
187.5753719979
 30
0.0
 40
0.6388088138627784
100
AcDbArc
 50
248.5500008505
 51
270.2860198305
  0
LINE
  5
30B
330
1F
100
AcDbEntity
  8
0
  6
Continuous
 62
     8
370
    25
100
AcDbLine
 10
167.8472024256
 20
187.0656226501
 30
0.0
 11
167.8472024256
 21
186.7366329506
 31
0.0
  0
LINE
  5
30C
330
1F
100
AcDbEntity
  8
0
  6
Continuous
 62
     8
370
    25
100
AcDbLine
 10
160.5898414606
 20
187.0656226501
 30
0.0
 11
160.5898414606
 21
186.9365711436
 31
0.0
  0
LINE
  5
30D
330
1F
100
AcDbEntity
  8
0
  6
Continuous
 62
     8
370
    25
100
AcDbLine
 10
189.3050440454
 20
149.5883007273
 30
0.0
 11
189.3050440454
 21
188.6064809486
 31
0.0
  0
LINE
  5
30E
330
1F
100
AcDbEntity
  8
0
  6
Continuous
 62
     8
370
    25
100
AcDbLine
 10
186.1898426765
 20
171.2103517466
 30
0.0
 11
186.1898426765
 21
190.0973905549
 31
0.0
  0
LINE
  5
30F
330
1F
100
AcDbEntity
  8
0
  6
Continuous
 62
     8
370
    25
100
AcDbLine
 10
186.1898426765
 20
148.0973911211
 30
0.0
 11
186.1898426765
 21
166.9844299294
 31
0.0
  0
LINE
  5
310
330
1F
100
AcDbEntity
  8
0
  6
Continuous
 62
     8
370
    25
100
AcDbLine
 10
169.1898417526
 20
190.0973905549
 30
0.0
 11
169.1898417526
 21
148.0973911211
 31
0.0
  0
SPLINE
  5
311
330
1F
100
AcDbEntity
  8
0
  6
Continuous
 62
     8
370
    25
100
AcDbSpline
210
0.0
220
0.0
230
1.0
 70
     8
 71
     3
 72
    12
 73
     8
 74
     0
 42
0.000000001
 43
0.00000001
 40
0.0
 40
0.0
 40
0.0
 40
0.0
 40
0.113274950428953
 40
0.2894431091552345
 40
0.510278105892114
 40
0.7739402684267855
 40
1.0
 40
1.0
 40
1.0
 40
1.0
 10
193.2942972385567
 20
183.866977572462
 30
0.0
 10
193.302110851671
 20
183.9260868205413
 30
0.0
 10
193.3220763997907
 20
184.0771243136422
 30
0.0
 10
193.5362012796614
 20
184.2650205197806
 30
0.0
 10
193.8578154560338
 20
184.3745189889987
 30
0.0
 10
194.2213937719914
 20
184.4331443647075
 30
0.0
 10
194.4734800375611
 20
184.4382514671778
 30
0.0
 10
194.5898451709431
 20
184.44060894849
 30
0.0
  0
SPLINE
  5
312
330
1F
100
AcDbEntity
  8
0
  6
Continuous
 62
     8
370
    25
100
AcDbSpline
210
0.0
220
0.0
230
1.0
 70
     8
 71
     3
 72
    12
 73
     8
 74
     0
 42
0.000000001
 43
0.00000001
 40
0.0
 40
0.0
 40
0.0
 40
0.0
 40
0.1476792067757447
 40
0.4336758803250031
 40
0.6660420606508145
 40
0.8435888824395364
 40
1.0
 40
1.0
 40
1.0
 40
1.0
 10
194.5898451709431
 20
153.7527021691412
 30
0.0
 10
194.5139242605056
 20
153.7538604608179
 30
0.0
 10
194.2909743382524
 20
153.7572619089537
 30
0.0
 10
193.94810234096
 20
153.8002285714542
 30
0.0
 10
193.60707486573
 20
153.8988426846035
 30
0.0
 10
193.3451286528694
 20
154.0713046723938
 30
0.0
 10
193.3105107377729
 20
154.2459894740841
 30
0.0
 10
193.2942972385567
 20
154.3278041035146
 30
0.0
  0
SPLINE
  5
313
330
1F
100
AcDbEntity
  8
0
  6
Continuous
 62
     8
370
    25
100
AcDbSpline
210
0.0
220
0.0
230
1.0
 70
     8
 71
     3
 72
    12
 73
     8
 74
     0
 42
0.000000001
 43
0.00000001
 40
0.0
 40
0.0
 40
0.0
 40
0.0
 40
0.1466772447705919
 40
0.3199276509887564
 40
0.5613677531899681
 40
0.866271158576572
 40
1.0
 40
1.0
 40
1.0
 40
1.0
 10
193.6898448371571
 20
154.7512625083536
 30
0.0
 10
193.7017975457878
 20
154.6998821695196
 30
0.0
 10
193.7278684063439
 20
154.5878130402153
 30
0.0
 10
193.92104741327
 20
154.5026059684905
 30
0.0
 10
194.1594914948601
 20
154.4652001417803
 30
0.0
 10
194.3941037595381
 20
154.4538598080121
 30
0.0
 10
194.5441113279131
 20
154.4541136926006
 30
0.0
 10
194.5898451709431
 20
154.4541910961479
 30
0.0
  0
SPLINE
  5
314
330
1F
100
AcDbEntity
  8
0
  6
Continuous
 62
     8
370
    25
100
AcDbSpline
210
0.0
220
0.0
230
1.0
 70
     8
 71
     3
 72
    12
 73
     8
 74
     0
 42
0.000000001
 43
0.00000001
 40
0.0
 40
0.0
 40
0.0
 40
0.0
 40
0.2176652557542418
 40
0.4975956108384069
 40
0.724596710942776
 40
0.8930793892648164
 40
1.0
 40
1.0
 40
1.0
 40
1.0
 10
194.5898451709431
 20
183.7399377227038
 30
0.0
 10
194.5153123865259
 20
183.7399914384665
 30
0.0
 10
194.3449260459909
 20
183.7401142358676
 30
0.0
 10
194.0957675983089
 20
183.7220991510239
 30
0.0
 10
193.870894626143
 20
183.6800975481312
 30
0.0
 10
193.7097399017777
 20
183.5774757886009
 30
0.0
 10
193.6954086861893
 20
183.4809814443332
 30
0.0
 10
193.6898448371571
 20
183.4435191676229
 30
0.0
  0
DIMENSION
  5
315
330
1F
100
AcDbEntity
  8
FORMAT
100
AcDbDimension
  2
_D
 10
277.4898442968
 20
116.9780176655
 30
0.0
 11
216.0398442968
 21
116.9780176655
 31
0.0
 70
   160
  1
約123mm (照明器具筐体壁面からの寸法)
 71
     2
 42
-1.0
  3
SLDDIMSTYLE0
100
AcDbAlignedDimension
 13
154.5898442968
 23
126.9780182019
 33
0.0
 14
277.4898442968
 24
160.5919052094
 34
0.0
 50
0.0
100
AcDbRotatedDimension
  0
INSERT
  5
32B
330
1F
100
AcDbEntity
  8
FORMAT
100
AcDbBlockReference
  2
SW_NOTE_4
 10
167.6497131807
 20
210.2733423278
 30
0.0
  0
LEADER
  5
335
330
1F
100
AcDbEntity
  8
FORMAT
100
AcDbLeader
  3
SLDDIMSTYLE1
 76
     2
 10
181.8036839844
 20
185.7005544351
 30
0.0
 10
167.6497131807
 20
210.2733423278
 30
0.0
  0
INSERT
  5
33B
330
1F
100
AcDbEntity
  8
FORMAT
100
AcDbBlockReference
  2
SW_NOTE_5
 10
220.1221325409
 20
210.1954931144
 30
0.0
  0
LEADER
  5
33C
330
1F
100
AcDbEntity
  8
FORMAT
100
AcDbLeader
  3
SLDDIMSTYLE1
 76
     2
 10
207.7183959951
 20
185.23191601
 30
0.0
 10
220.1221325409
 20
210.1954931144
 30
0.0
  0
INSERT
  5
342
330
1F
100
AcDbEntity
  8
FORMAT
100
AcDbBlockReference
  2
SW_NOTE_6
 10
144.7954333174
 20
210.3481441757
 30
0.0
  0
LEADER
  5
343
330
1F
100
AcDbEntity
  8
FORMAT
100
AcDbLeader
  3
SLDDIMSTYLE1
 76
     2
 10
153.4727640571
 20
202.0414588123
 30
0.0
 10
144.7954333174
 20
210.3481441757
 30
0.0
  0
MTEXT
  5
344
330
1F
100
AcDbEntity
  8
FORMAT
100
AcDbMText
 10
93.4221882479
 20
172.8904897034
 30
0.0
 40
3.5
 41
0.0
 71
     1
 72
     1
  1
照明器具側
  7
SLDTEXTSTYLE0
 73
     1
 44
1.0
  0
MTEXT
  5
345
330
1F
100
AcDbEntity
  8
FORMAT
100
AcDbMText
 10
331.0287204555
 20
172.8904897034
 30
0.0
 40
3.5
 41
0.0
 71
     1
 72
     1
  1
ブランチケーブル側
  7
SLDTEXTSTYLE0
 73
     1
 44
1.0
  0
INSERT
  5
34D
330
1F
100
AcDbEntity
  8
FORMAT
100
AcDbBlockReference
  2
SW_NOTE_7
 10
98.3628898355
 20
210.4772135569
 30
0.0
  0
ENDSEC
  0
SECTION
  2
OBJECTS
  0
DICTIONARY
  5
C
330
0
100
AcDbDictionary
281
     1
  3
ACAD_GROUP
350
D
  3
ACAD_LAYOUT
350
1A
  3
ACAD_MLINESTYLE
350
17
  3
ACAD_PLOTSETTINGS
350
19
  3
ACAD_PLOTSTYLENAME
350
E
  3
ACAD_SCALELIST
350
47
  0
DICTIONARY
  5
D
102
{ACAD_REACTORS
330
C
102
}
330
C
100
AcDbDictionary
281
     1
  0
DICTIONARY
  5
1A
102
{ACAD_REACTORS
330
C
102
}
330
C
100
AcDbDictionary
281
     1
  3
Layout1
350
1E
  3
Layout2
350
26
  3
Model
350
22
  0
DICTIONARY
  5
17
102
{ACAD_REACTORS
330
C
102
}
330
C
100
AcDbDictionary
281
     1
  3
Standard
350
18
  0
DICTIONARY
  5
19
102
{ACAD_REACTORS
330
C
102
}
330
C
100
AcDbDictionary
281
     1
  0
ACDBDICTIONARYWDFLT
  5
E
102
{ACAD_REACTORS
330
C
102
}
330
C
100
AcDbDictionary
281
     1
  3
Normal
350
F
100
AcDbDictionaryWithDefault
340
F
  0
DICTIONARY
  5
47
102
{ACAD_REACTORS
330
C
102
}
330
C
100
AcDbDictionary
281
     1
  3
A0
350
48
  3
A1
350
49
  3
A2
350
4A
  3
A3
350
4B
  3
A4
350
4C
  3
A5
350
4D
  3
A6
350
4E
  3
A7
350
4F
  3
A8
350
50
  3
A9
350
51
  3
B0
350
52
  3
B1
350
53
  3
B2
350
54
  3
B3
350
55
  3
B4
350
56
  3
B5
350
57
  3
B6
350
58
  3
B7
350
59
  3
B8
350
5A
  3
B9
350
5B
  3
C0
350
5C
  3
C1
350
5D
  3
C2
350
5E
  3
C3
350
5F
  3
C4
350
60
  3
C5
350
61
  3
C6
350
62
  3
C7
350
63
  3
C8
350
64
  3
C9
350
65
  3
D0
350
66
  3
D1
350
67
  3
D2
350
68
  0
LAYOUT
  5
1E
102
{ACAD_REACTORS
330
1A
102
}
330
1A
100
AcDbPlotSettings
  1

  2
none_device
  4

  6

 40
0.0
 41
0.0
 42
0.0
 43
0.0
 44
0.0
 45
0.0
 46
0.0
 47
0.0
 48
0.0
 49
0.0
140
0.0
141
0.0
142
1.0
143
1.0
 70
   688
 72
     1
 73
     0
 74
     5
  7

 75
    16
147
1.0
148
0.0
149
0.0
100
AcDbLayout
  1
Layout1
 70
     1
 71
     1
 10
0.0
 20
0.0
 11
420.0
 21
297.0
 12
0.0
 22
0.0
 32
0.0
 14
1.0000000000E+20
 24
1.0000000000E+20
 34
1.0000000000E+20
 15
-1.0000000000E+20
 25
-1.0000000000E+20
 35
-1.0000000000E+20
146
0.0
 13
0.0
 23
0.0
 33
0.0
 16
1.0
 26
0.0
 36
0.0
 17
0.0
 27
1.0
 37
0.0
 76
     0
330
1B
  0
LAYOUT
  5
26
102
{ACAD_REACTORS
330
1A
102
}
330
1A
100
AcDbPlotSettings
  1

  2
none_device
  4

  6

 40
0.0
 41
0.0
 42
0.0
 43
0.0
 44
0.0
 45
0.0
 46
0.0
 47
0.0
 48
0.0
 49
0.0
140
0.0
141
0.0
142
1.0
143
1.0
 70
   688
 72
     1
 73
     0
 74
     5
  7

 75
    16
147
1.0
148
0.0
149
0.0
100
AcDbLayout
  1
Layout2
 70
     1
 71
     2
 10
0.0
 20
0.0
 11
0.0
 21
0.0
 12
0.0
 22
0.0
 32
0.0
 14
0.0
 24
0.0
 34
0.0
 15
0.0
 25
0.0
 35
0.0
146
0.0
 13
0.0
 23
0.0
 33
0.0
 16
1.0
 26
0.0
 36
0.0
 17
0.0
 27
1.0
 37
0.0
 76
     0
330
23
  0
LAYOUT
  5
22
102
{ACAD_REACTORS
330
1A
102
}
330
1A
100
AcDbPlotSettings
  1

  2
none_device
  4
Letter_(8.50_x_11.00_Inches)
  6

 40
6.35
 41
6.35
 42
6.35000508
 43
6.35000508
 44
215.9
 45
279.4
 46
0.0
 47
0.0
 48
0.0
 49
0.0
140
0.0
141
0.0
142
1.0
143
1.0
 70
  1712
 72
     1
 73
     0
 74
     0
  7

 75
     0
147
1.0
148
0.0
149
0.0
100
AcDbLayout
  1
Model
 70
     1
 71
     0
 10
0.0
 20
0.0
 11
420.0
 21
297.0
 12
0.0
 22
0.0
 32
0.0
 14
0.0
 24
0.0
 34
0.0
 15
420.0
 25
297.0
 35
0.0
146
0.0
 13
0.0
 23
0.0
 33
0.0
 16
1.0
 26
0.0
 36
0.0
 17
0.0
 27
1.0
 37
0.0
 76
     0
330
1F
331
29
  0
MLINESTYLE
  5
18
102
{ACAD_REACTORS
330
17
102
}
330
17
100
AcDbMlineStyle
  2
Standard
 70
     0
  3

 62
   256
 51
90.0
 52
90.0
 71
     2
 49
0.5
 62
   256
  6
BYLAYER
 49
-0.5
 62
   256
  6
BYLAYER
  0
ACDBPLACEHOLDER
  5
F
102
{ACAD_REACTORS
330
E
102
}
330
E
  0
SCALE
  5
48
102
{ACAD_REACTORS
330
47
102
}
330
47
100
AcDbScale
 70
     0
300
1:1
140
1.0
141
1.0
290
     1
  0
SCALE
  5
49
102
{ACAD_REACTORS
330
47
102
}
330
47
100
AcDbScale
 70
     0
300
1:2
140
1.0
141
2.0
290
     0
  0
SCALE
  5
4A
102
{ACAD_REACTORS
330
47
102
}
330
47
100
AcDbScale
 70
     0
300
1:4
140
1.0
141
4.0
290
     0
  0
SCALE
  5
4B
102
{ACAD_REACTORS
330
47
102
}
330
47
100
AcDbScale
 70
     0
300
1:5
140
1.0
141
5.0
290
     0
  0
SCALE
  5
4C
102
{ACAD_REACTORS
330
47
102
}
330
47
100
AcDbScale
 70
     0
300
1:8
140
1.0
141
8.0
290
     0
  0
SCALE
  5
4D
102
{ACAD_REACTORS
330
47
102
}
330
47
100
AcDbScale
 70
     0
300
1:10
140
1.0
141
10.0
290
     0
  0
SCALE
  5
4E
102
{ACAD_REACTORS
330
47
102
}
330
47
100
AcDbScale
 70
     0
300
1:16
140
1.0
141
16.0
290
     0
  0
SCALE
  5
4F
102
{ACAD_REACTORS
330
47
102
}
330
47
100
AcDbScale
 70
     0
300
1:20
140
1.0
141
20.0
290
     0
  0
SCALE
  5
50
102
{ACAD_REACTORS
330
47
102
}
330
47
100
AcDbScale
 70
     0
300
1:30
140
1.0
141
30.0
290
     0
  0
SCALE
  5
51
102
{ACAD_REACTORS
330
47
102
}
330
47
100
AcDbScale
 70
     0
300
1:40
140
1.0
141
40.0
290
     0
  0
SCALE
  5
52
102
{ACAD_REACTORS
330
47
102
}
330
47
100
AcDbScale
 70
     0
300
1:50
140
1.0
141
50.0
290
     0
  0
SCALE
  5
53
102
{ACAD_REACTORS
330
47
102
}
330
47
100
AcDbScale
 70
     0
300
1:100
140
1.0
141
100.0
290
     0
  0
SCALE
  5
54
102
{ACAD_REACTORS
330
47
102
}
330
47
100
AcDbScale
 70
     0
300
2:1
140
2.0
141
1.0
290
     0
  0
SCALE
  5
55
102
{ACAD_REACTORS
330
47
102
}
330
47
100
AcDbScale
 70
     0
300
4:1
140
4.0
141
1.0
290
     0
  0
SCALE
  5
56
102
{ACAD_REACTORS
330
47
102
}
330
47
100
AcDbScale
 70
     0
300
8:1
140
8.0
141
1.0
290
     0
  0
SCALE
  5
57
102
{ACAD_REACTORS
330
47
102
}
330
47
100
AcDbScale
 70
     0
300
10:1
140
10.0
141
1.0
290
     0
  0
SCALE
  5
58
102
{ACAD_REACTORS
330
47
102
}
330
47
100
AcDbScale
 70
     0
300
100:1
140
100.0
141
1.0
290
     0
  0
SCALE
  5
59
102
{ACAD_REACTORS
330
47
102
}
330
47
100
AcDbScale
 70
     0
300
1/128" = 1'-0"
140
0.0078125
141
12.0
290
     0
  0
SCALE
  5
5A
102
{ACAD_REACTORS
330
47
102
}
330
47
100
AcDbScale
 70
     0
300
1/64" = 1'-0"
140
0.015625
141
12.0
290
     0
  0
SCALE
  5
5B
102
{ACAD_REACTORS
330
47
102
}
330
47
100
AcDbScale
 70
     0
300
1/32" = 1'-0"
140
0.03125
141
12.0
290
     0
  0
SCALE
  5
5C
102
{ACAD_REACTORS
330
47
102
}
330
47
100
AcDbScale
 70
     0
300
1/16" = 1'-0"
140
0.0625
141
12.0
290
     0
  0
SCALE
  5
5D
102
{ACAD_REACTORS
330
47
102
}
330
47
100
AcDbScale
 70
     0
300
3/32" = 1'-0"
140
0.09375
141
12.0
290
     0
  0
SCALE
  5
5E
102
{ACAD_REACTORS
330
47
102
}
330
47
100
AcDbScale
 70
     0
300
1/8" = 1'-0"
140
0.125
141
12.0
290
     0
  0
SCALE
  5
5F
102
{ACAD_REACTORS
330
47
102
}
330
47
100
AcDbScale
 70
     0
300
3/16" = 1'-0"
140
0.1875
141
12.0
290
     0
  0
SCALE
  5
60
102
{ACAD_REACTORS
330
47
102
}
330
47
100
AcDbScale
 70
     0
300
1/4" = 1'-0"
140
0.25
141
12.0
290
     0
  0
SCALE
  5
61
102
{ACAD_REACTORS
330
47
102
}
330
47
100
AcDbScale
 70
     0
300
3/8" = 1'-0"
140
0.375
141
12.0
290
     0
  0
SCALE
  5
62
102
{ACAD_REACTORS
330
47
102
}
330
47
100
AcDbScale
 70
     0
300
1/2" = 1'-0"
140
0.5
141
12.0
290
     0
  0
SCALE
  5
63
102
{ACAD_REACTORS
330
47
102
}
330
47
100
AcDbScale
 70
     0
300
3/4" = 1'-0"
140
0.75
141
12.0
290
     0
  0
SCALE
  5
64
102
{ACAD_REACTORS
330
47
102
}
330
47
100
AcDbScale
 70
     0
300
1" = 1'-0"
140
1.0
141
12.0
290
     0
  0
SCALE
  5
65
102
{ACAD_REACTORS
330
47
102
}
330
47
100
AcDbScale
 70
     0
300
1-1/2" = 1'-0"
140
1.5
141
12.0
290
     0
  0
SCALE
  5
66
102
{ACAD_REACTORS
330
47
102
}
330
47
100
AcDbScale
 70
     0
300
3" = 1'-0"
140
3.0
141
12.0
290
     0
  0
SCALE
  5
67
102
{ACAD_REACTORS
330
47
102
}
330
47
100
AcDbScale
 70
     0
300
6" = 1'-0"
140
6.0
141
12.0
290
     0
  0
SCALE
  5
68
102
{ACAD_REACTORS
330
47
102
}
330
47
100
AcDbScale
 70
     0
300
1'-0" = 1'-0"
140
12.0
141
12.0
290
     0
  0
ENDSEC
  0
EOF
